<?xml version="1.0" standalone="no"?>
<!DOCTYPE svg PUBLIC "-//W3C//DTD SVG 1.1//EN" "http://www.w3.org/Graphics/SVG/1.1/DTD/svg11.dtd" >
<svg xmlns="http://www.w3.org/2000/svg" xmlns:xlink="http://www.w3.org/1999/xlink" version="1.1">
<metadata>
Created by FontForge 20150824 at Sun Feb  7 16:20:36 2016
 By Everything Fonts
(c) 1992, 1994, 1997, 2000, 2004 Adobe Systems Incorporated. All rights reserved.
</metadata>
<defs>
<font id="SystemMyriadProItalic" horiz-adv-x="405" >
  <font-face 
    font-family="SystemMyriadProItalic"
    font-weight="400"
    font-style="italic"
    font-stretch="normal"
    units-per-em="984"
    panose-1="2 11 5 3 3 4 3 9 2 4"
    ascent="787"
    descent="-197"
    x-height="513"
    cap-height="714"
    bbox="-196 -265 1155 1010"
    underline-thickness="50"
    underline-position="-150"
    slope="-11"
    unicode-range="U+0020-FB04"
  />
<missing-glyph horiz-adv-x="529" 
d="M0 0v742h530v-742h-530zM265 418l180 271h-360zM297 371l180 -270v540zM85 53h360l-180 270zM53 641v-540l180 270z" />
    <glyph glyph-name="f_f_j" unicode="ffj" horiz-adv-x="800" 
d="M801 736l-28 -69q-42 24 -100 24q-120 0 -148 -154l-3 -24h275l-97 -511q-23 -127 -65 -174q-45 -49 -118 -49q-37 0 -58 6l10 69q19 -4 41 -4q36 0 60.5 29t38.5 104l87 461h-188l-83 -444h-88l84 444h-207l-85 -444h-87l84 444h-68l13 69h69l5 25q19 104 76 161
q53 53 132 53q46 0 79 -22l-31 -67q-24 16 -54 16q-39 0 -65 -26q-35 -34 -51 -118l-4 -22h208l5 26q19 106 83 165.5t162 59.5q23 0 47 -4t42 -10.5t27 -13.5z" />
    <glyph glyph-name="f_j" unicode="fj" horiz-adv-x="506" 
d="M506 736l-27 -69q-43 24 -101 24q-119 0 -147 -154l-4 -24h275l-96 -511q-14 -67 -29 -108t-37 -66q-45 -49 -118 -49q-36 0 -57 6l11 69q17 -4 39 -4q36 0 60.5 29t39.5 104l86 461h-187l-84 -444h-87l84 444h-69l14 69h69l4 26q20 106 83 165.5t163 59.5
q34 0 67.5 -8.5t47.5 -19.5z" />
    <glyph glyph-name="f_f" unicode="ff" horiz-adv-x="594" 
d="M716 750l-19 -70q-21 10 -52 10q-92 0 -119 -153l-4 -24h114l-13 -69h-115l-83 -444h-88l85 444h-208l-84 -444h-88l84 444h-68l13 69h69l4 23q21 110 77 167q49 49 124 49q38 0 66 -15l-26 -69q-18 11 -43 11q-84 0 -111 -145l-4 -21h207l6 26q21 123 83 179
q51 46 122 46q48 0 71 -14z" />
    <glyph glyph-name="f_f_i" unicode="ffi" horiz-adv-x="823" 
d="M801 736l-28 -69q-42 24 -100 24q-120 0 -148 -154l-3 -24h275l-98 -513h-88l84 444h-187l-83 -444h-88l85 444h-208l-85 -444h-87l84 444h-68l13 69h69l5 25q19 104 76 161q53 53 132 53q45 0 80 -22l-32 -67q-24 16 -54 16q-39 0 -65 -26q-35 -34 -51 -118l-4 -22h208
l5 26q19 106 83 165.5t162 59.5q23 0 47 -4t42 -10.5t27 -13.5z" />
    <glyph glyph-name="f_f_l" unicode="ffl" horiz-adv-x="823" 
d="M435 731l-30 -67q-25 15 -55 15q-41 0 -68 -28q-37 -36 -51 -116l-4 -22h208l4 22q21 119 99 180q63 49 159 49q39 0 78 -9t63 -24l-139 -731h-88l129 679q-23 13 -67 13q-41 0 -71.5 -20.5t-48 -53.5t-25.5 -78l-6 -27h108l-13 -69h-109l-83 -444h-88l85 444h-208
l-85 -444h-87l84 444h-68l13 69h69l4 24q18 103 77 162q53 53 133 53q44 0 81 -21z" />
    <glyph glyph-name="f_i" unicode="fi" horiz-adv-x="528" 
d="M130 0h-87l84 444h-68l13 69h69l4 26q19 106 83 165.5t163 59.5q34 0 67.5 -8.5t47.5 -19.5l-26 -69q-45 24 -102 24q-64 0 -99.5 -42.5t-46.5 -111.5l-4 -24h274l-97 -513h-88l84 444h-187z" />
    <glyph glyph-name="f_l" unicode="fl" horiz-adv-x="528" 
d="M130 0h-87l84 444h-69l14 69h69l3 22q23 121 100 180q63 49 159 49q39 0 78.5 -9t61.5 -24l-138 -731h-88l129 679q-24 13 -68 13q-60 0 -96 -41.5t-49 -110.5l-5 -27h108l-14 -69h-108z" />
    <glyph glyph-name=".notdef" horiz-adv-x="529" 
d="M0 0v742h530v-742h-530zM265 418l180 271h-360zM297 371l180 -270v540zM85 53h360l-180 270zM53 641v-540l180 270z" />
    <glyph glyph-name=".null" horiz-adv-x="0" 
 />
    <glyph glyph-name="nonmarkingreturn" horiz-adv-x="328" 
 />
    <glyph glyph-name="space" unicode=" " horiz-adv-x="192" 
 />
    <glyph glyph-name="exclam" unicode="!" horiz-adv-x="250" 
d="M151 206h-70l83 508h100zM83 -12q-26 0 -42.5 18t-16.5 44q0 30 19 50.5t48 20.5q17 0 30.5 -8.5t20.5 -22.5t7 -32q0 -19 -8 -35t-23.5 -25.5t-34.5 -9.5z" />
    <glyph glyph-name="quotedbl" unicode="&#x22;" horiz-adv-x="322" 
d="M127 726h92l-66 -257h-58zM286 726h91l-66 -257h-58z" />
    <glyph glyph-name="numbersign" unicode="#" horiz-adv-x="521" 
d="M204 269h97l48 156h-96zM121 0h-63l65 209h-87l11 60h96l49 156h-92l10 60h100l63 204h62l-64 -204h97l63 204h62l-64 -204h87l-11 -60h-95l-48 -156h92l-10 -60h-102l-63 -209h-63l65 209h-96z" />
    <glyph glyph-name="dollar" unicode="$" horiz-adv-x="521" 
d="M222 -91h-63l20 107q-36 1 -76.5 15t-63.5 32l30 67q65 -45 141 -45q38 0 69.5 14.5t50.5 41.5t19 61q0 25 -8.5 45t-28.5 38.5t-52 35.5q-46 24 -75.5 49t-45.5 55.5t-16 64.5q0 72 52.5 125t133.5 60l22 104h63l-19 -104q18 -1 36.5 -4.5t33 -8.5t26 -10.5t18.5 -11.5
l-29 -66q-1 1 -7 4t-8.5 4t-9 4.5t-10 5t-11 4t-13 4t-13.5 3.5t-15 3t-16 1.5t-18 0.5q-38 0 -66.5 -14t-43 -37.5t-14.5 -53.5q0 -23 10 -41.5t32 -35.5t62 -38q123 -66 123 -168q0 -85 -55.5 -139.5t-142.5 -64.5z" />
    <glyph glyph-name="percent" unicode="%" horiz-adv-x="818" 
d="M271 699q42 0 71 -21t42 -52.5t13 -69.5q0 -116 -55 -197t-140 -81q-60 0 -94.5 41t-34.5 111q0 49 14 97t39 86.5t63 62t82 23.5zM262 643q-34 0 -62 -34.5t-41.5 -83t-13.5 -97.5q0 -95 67 -95q25 0 47.5 21t36.5 53.5t22 70.5t8 73q0 37 -15 64.5t-49 27.5zM198 -12
h-63l518 712h63zM655 415q61 0 93.5 -41.5t32.5 -101.5q0 -116 -55 -197.5t-139 -81.5q-61 0 -95.5 41.5t-34.5 111.5q0 67 23.5 127.5t69.5 101t105 40.5zM645 360q-34 0 -61.5 -34.5t-41 -83.5t-13.5 -98q0 -95 66 -95q26 0 48 21t36.5 53.5t22.5 70.5t8 73q0 38 -15 65.5
t-50 27.5z" />
    <glyph glyph-name="ampersand" unicode="&#x26;" horiz-adv-x="623" 
d="M565 0h-104q-23 27 -49 66q-85 -78 -200 -78q-90 0 -142 50.5t-52 128.5q0 77 50.5 135.5t126.5 94.5v3q-38 72 -38 131q-1 80 53 137.5t135 57.5q69 0 106.5 -40.5t37.5 -100.5q0 -63 -45 -114t-138 -94v-3q55 -93 128 -198q61 76 108 214h83q-62 -180 -150 -271
q50 -71 90 -119zM234 57q81 0 141 64q-9 13 -38.5 56.5t-58 86.5t-51.5 82q-18 -10 -31 -19.5t-31 -26t-29.5 -33t-20 -39.5t-8.5 -48q0 -53 34 -88t93 -35zM337 663q-42 0 -71 -35t-29 -88q0 -57 34 -113q68 32 102.5 69.5t34.5 86.5q0 34 -17.5 57t-53.5 23z" />
    <glyph glyph-name="quotesingle" unicode="'" horiz-adv-x="175" 
d="M135 726h91l-66 -257h-57z" />
    <glyph glyph-name="parenleft" unicode="(" horiz-adv-x="300" 
d="M296 732h75q-45 -51 -82.5 -108.5t-70 -128.5t-51.5 -156t-19 -173q0 -153 59 -291h-67q-68 132 -68 293q0 91 19.5 178t53.5 158t71 126t80 102z" />
    <glyph glyph-name="parenright" unicode=")" horiz-adv-x="300" 
d="M26 -125h-75q45 51 82.5 109t70.5 129t51.5 156t18.5 173q0 154 -59 290h68q67 -132 67 -292q0 -91 -19.5 -178t-53.5 -158t-71 -126.5t-80 -102.5z" />
    <glyph glyph-name="asterisk" unicode="*" horiz-adv-x="438" 
d="M358 726l60 -36l-116 -133v-2l162 21l-15 -72l-152 19v-2l86 -128l-67 -37l-51 148h-2l-84 -149l-56 38l114 129v2l-158 -20l13 72l150 -20v2l-85 131l69 36l49 -148h3z" />
    <glyph glyph-name="plus" unicode="+" horiz-adv-x="631" 
d="M290 564h66v-250h232v-62h-232v-252h-66v252h-232v62h232v250z" />
    <glyph glyph-name="comma" unicode="," horiz-adv-x="223" 
d="M22 -124l-68 -6q26 48 56.5 122.5t47.5 130.5l105 10q-28 -65 -70 -141.5t-71 -115.5z" />
    <glyph glyph-name="hyphen" unicode="-" horiz-adv-x="325" 
d="M51 321h253l-13 -69h-254z" />
    <glyph glyph-name="period" unicode="." horiz-adv-x="223" 
d="M81 -12q-26 0 -42.5 18t-16.5 45q0 30 19 50.5t48 20.5q27 0 43 -18t16 -46q0 -29 -19 -49.5t-48 -20.5z" />
    <glyph glyph-name="slash" unicode="/" horiz-adv-x="345" 
d="M14 -42h-71l426 768h72z" />
    <glyph glyph-name="zero" unicode="0" horiz-adv-x="521" 
d="M346 700q48 0 82.5 -18.5t53 -50t27 -68t8.5 -79.5q0 -86 -20 -172.5t-57 -159t-95 -118.5t-127 -46q-37 0 -66.5 12t-49 33.5t-32.5 51.5t-18.5 64.5t-5.5 75.5q0 86 21.5 170.5t60 152.5t96 110t122.5 42zM337 629q-43 0 -82 -40t-65 -101.5t-41.5 -132.5t-15.5 -135
q0 -161 97 -161q46 0 85.5 45.5t63 113t37 137t13.5 124.5q0 150 -92 150z" />
    <glyph glyph-name="one" unicode="1" horiz-adv-x="521" 
d="M192 0l114 600h-2l-118 -60l-9 70l157 79h74l-130 -689h-86z" />
    <glyph glyph-name="two" unicode="2" horiz-adv-x="521" 
d="M415 0h-415l11 58l102 86q77 65 125 110t89.5 93t60 90t18.5 83q0 43 -26 74t-81 31q-71 0 -142 -50l-24 64q38 27 87.5 44t96.5 17t82.5 -14.5t56.5 -39t31 -53.5t10 -61q0 -53 -22 -105t-67 -105t-91.5 -97t-117.5 -102l-58 -46v-2h289z" />
    <glyph glyph-name="three" unicode="3" horiz-adv-x="521" 
d="M17 32l30 70q63 -38 132 -38q82 0 127 46t45 105q0 41 -20.5 69.5t-53 40.5t-74.5 12h-35l14 69h35q26 0 54.5 8t55 24t44 42.5t17.5 58.5q0 27 -10.5 46t-32.5 29.5t-55 10.5q-77 0 -130 -38l-19 67q76 46 164 46q83 0 129.5 -42.5t46.5 -105.5q0 -64 -44.5 -112
t-108.5 -66v-2q55 -13 85.5 -56.5t30.5 -99.5q0 -97 -77.5 -162.5t-190.5 -65.5q-52 0 -96 13t-63 31z" />
    <glyph glyph-name="four" unicode="4" horiz-adv-x="521" 
d="M356 0h-84l36 190h-296l11 59l368 440h95l-81 -429h94l-14 -70h-93zM120 260h202l45 229q3 15 8 35.5t9.5 40.5t8.5 35h-4q-9 -14 -24.5 -38t-27.5 -41.5t-26 -34.5l-191 -224v-2z" />
    <glyph glyph-name="five" unicode="5" horiz-adv-x="521" 
d="M516 689l-15 -77h-236l-54 -174q11 2 34 2q68 0 119 -33q41 -23 62 -64t21 -88q0 -81 -40 -142.5t-103.5 -93t-139.5 -31.5q-47 0 -88.5 12t-59.5 26l27 70q21 -13 55.5 -22.5t73.5 -9.5q74 0 129 50.5t55 121.5q0 134 -166 134q-23 0 -78 -5l96 324h308z" />
    <glyph glyph-name="six" unicode="6" horiz-adv-x="521" 
d="M498 699l-13 -75q-32 0 -63 -5q-93 -17 -166 -84t-107 -167h2q31 39 76.5 62t92.5 23q78 0 122 -52t44 -134q0 -68 -31.5 -132t-91 -105.5t-130.5 -41.5q-95 0 -145 62t-50 164q0 113 50.5 216.5t122.5 163.5q100 85 228 101q34 6 59 4zM238 59q67 0 112 62.5t45 139.5
q0 60 -28.5 92t-80.5 32q-40 0 -79 -25.5t-66 -69.5q-10 -17 -12 -34q-5 -24 -5 -54q0 -64 29.5 -103.5t84.5 -39.5z" />
    <glyph glyph-name="seven" unicode="7" horiz-adv-x="521" 
d="M142 689h412l-12 -62q-151 -240 -399 -627h-97q200 305 397 610l-1 3h-315z" />
    <glyph glyph-name="eight" unicode="8" horiz-adv-x="521" 
d="M333 700q77 0 125.5 -42.5t48.5 -112.5q0 -59 -36 -104.5t-99 -75.5v-3q51 -27 76.5 -70t25.5 -93q0 -64 -36 -113.5t-90.5 -73.5t-115.5 -24q-95 0 -151 48t-56 124q0 74 46 126.5t115 80.5l2 3q-76 53 -76 135q0 83 64.5 139t156.5 56zM237 55q62 0 103.5 38t41.5 99
q0 51 -29 84.5t-91 55.5q-60 -16 -102.5 -58t-42.5 -105q0 -30 13 -55.5t41 -42t66 -16.5zM321 633q-52 0 -88 -36t-36 -85q0 -81 101 -117q53 18 88 54.5t35 84.5q0 41 -24 70t-76 29z" />
    <glyph glyph-name="nine" unicode="9" horiz-adv-x="521" 
d="M59 -11l11 76q22 -2 66 4q79 12 146 68q84 66 126 183h-3q-31 -36 -73 -55.5t-84 -19.5q-80 0 -123.5 52.5t-43.5 126.5q0 69 33 132.5t92.5 103.5t129.5 40q92 0 138.5 -61t46.5 -156q0 -119 -54.5 -228t-123.5 -168q-88 -76 -206 -93q-52 -6 -78 -5zM327 629
q-42 0 -78.5 -28t-57 -73t-20.5 -95q0 -53 26.5 -85.5t76.5 -32.5q41 0 77 21t60 57q9 12 14 31q7 31 7 71q0 61 -25.5 97.5t-79.5 36.5z" />
    <glyph glyph-name="colon" unicode=":" horiz-adv-x="223" 
d="M153 362q-27 0 -43.5 18t-16.5 45q0 29 19 49.5t48 20.5q27 0 43 -17.5t16 -45.5q0 -29 -19 -49.5t-47 -20.5zM81 -12q-26 0 -42.5 18t-16.5 44q0 30 19 50.5t48 20.5q27 0 42.5 -17.5t15.5 -45.5q0 -19 -8 -35t-23.5 -25.5t-34.5 -9.5z" />
    <glyph glyph-name="semicolon" unicode=";" horiz-adv-x="223" 
d="M21 -124l-67 -6q27 50 57.5 124t46.5 129l105 10q-28 -66 -70.5 -142.5t-71.5 -114.5zM158 362q-27 0 -43 18t-16 45q0 29 18.5 49.5t47.5 20.5q27 0 43.5 -17.5t16.5 -45.5q0 -29 -19 -49.5t-48 -20.5z" />
    <glyph glyph-name="less" unicode="&#x3c;" horiz-adv-x="631" 
d="M83 253v57l475 254v-72l-397 -209v-2l397 -209v-72z" />
    <glyph glyph-name="equal" unicode="=" horiz-adv-x="631" 
d="M589 358h-530v63h530v-63zM589 149h-530v63h530v-63z" />
    <glyph glyph-name="greater" unicode="&#x3e;" horiz-adv-x="631" 
d="M573 311v-59l-476 -252v72l402 209v2l-402 209v72z" />
    <glyph glyph-name="question" unicode="?" horiz-adv-x="406" 
d="M220 204h-85q0 5 0.5 14.5t1.5 13.5q10 94 102 192q25 25 36 38t27.5 34.5t23.5 41t7 39.5q0 32 -19.5 53t-62.5 21q-59 0 -105 -29l-17 64q65 40 145 40q73 0 111.5 -39.5t38.5 -93.5q0 -39 -17 -77t-39 -65t-60 -65q-26 -27 -43.5 -51.5t-27 -48.5t-12.5 -52
q-1 -5 -2.5 -15t-2.5 -15zM144 -12q-26 0 -42 18t-16 44q0 14 5 27t14 23t21.5 15.5t26.5 5.5q26 0 42.5 -18t16.5 -45q0 -19 -8.5 -35t-24 -25.5t-35.5 -9.5z" />
    <glyph glyph-name="at" unicode="@" horiz-adv-x="762" 
d="M465 270l23 120q-27 7 -53 7q-45 0 -84.5 -26t-62 -70t-22.5 -94q0 -36 18.5 -58.5t51.5 -22.5q44 0 82 45.5t47 98.5zM529 -21l17 -47q-77 -42 -186 -42q-139 0 -231 90.5t-92 239.5q0 82 27.5 156t76.5 129.5t122.5 88.5t159.5 33q137 0 222.5 -86t85.5 -220
q0 -115 -55 -183.5t-134 -68.5q-34 0 -57 23.5t-21 69.5h-3q-57 -93 -151 -93q-48 0 -81 36.5t-33 96.5q0 101 72 176t179 75q66 0 114 -22l-36 -192q-23 -117 32 -118q44 -1 79.5 52.5t35.5 141.5q0 118 -68.5 190.5t-189.5 72.5q-37 0 -72 -8t-66.5 -24t-59 -38.5
t-49.5 -52.5t-38 -64.5t-24.5 -76.5t-8.5 -87q0 -132 76 -209t201 -77q92 0 156 38z" />
    <glyph glyph-name="A" unicode="A" horiz-adv-x="601" 
d="M425 226h-247l-113 -226h-94l370 714h104l98 -714h-90zM210 296h207l-27 206q-8 73 -13 131h-2q-3 -6 -24.5 -55t-33.5 -75z" />
    <glyph glyph-name="B" unicode="B" horiz-adv-x="549" 
d="M34 5l132 699q76 15 154 15q108 0 164 -49q52 -42 52 -112q0 -64 -45 -112.5t-110 -65.5v-2q52 -15 85.5 -56.5t32.5 -102.5q0 -51 -24 -93.5t-62 -71.5q-77 -58 -231 -58q-97 0 -148 9zM243 642l-45 -231h66q78 0 129.5 38t51.5 102q0 25 -9.5 44t-26.5 31t-40.5 17.5
t-52.5 5.5q-49 0 -73 -7zM184 344l-52 -273q30 -4 74 -4q54 -1 98 14t73.5 51.5t29.5 91.5q0 59 -43.5 89.5t-108.5 30.5h-71z" />
    <glyph glyph-name="C" unicode="C" horiz-adv-x="587" 
d="M515 95l11 -72q-75 -34 -185 -34q-135 0 -212 79.5t-77 216.5q0 102 39.5 193t112.5 151q113 97 270 97q54 0 95.5 -11t58.5 -24l-28 -71q-50 29 -141 29q-37 0 -73.5 -9t-70 -27t-61.5 -44q-50 -48 -79.5 -119.5t-29.5 -151.5q0 -50 12 -91t37 -73.5t68 -50.5t100 -18
q93 0 153 30z" />
    <glyph glyph-name="D" unicode="D" horiz-adv-x="685" 
d="M34 4l133 700q84 15 177 15q181 0 263 -95q66 -70 68 -194q0 -98 -38 -188t-106 -148q-118 -98 -323 -98q-100 0 -174 8zM243 640l-107 -567q39 -5 92 -5q163 0 255 95q47 49 72.5 117.5t25.5 145.5q0 102 -57 161.5t-184 59.5q-60 0 -97 -7z" />
    <glyph glyph-name="E" unicode="E" horiz-adv-x="497" 
d="M459 410l-15 -74h-260l-48 -261h292l-15 -75h-380l135 714h365l-15 -75h-275l-44 -229h260z" />
    <glyph glyph-name="F" unicode="F" horiz-adv-x="492" 
d="M33 0l135 714h363l-14 -75h-274l-47 -241h253l-15 -75h-252l-61 -323h-88z" />
    <glyph glyph-name="G" unicode="G" horiz-adv-x="659" 
d="M623 373l-65 -342q-93 -38 -201 -38q-153 0 -233 89q-72 80 -72 208q0 92 36 178.5t104 146.5q121 106 293 106q59 0 103.5 -10t65.5 -22l-29 -75q-63 31 -150 31q-130 0 -222 -87q-49 -46 -78 -117t-29 -144q0 -108 56.5 -168.5t171.5 -60.5q63 0 109 20l40 213h-145
l14 72h231z" />
    <glyph glyph-name="H" unicode="H" horiz-adv-x="664" 
d="M169 714h88l-58 -301h329l57 301h89l-137 -714h-88l64 336h-329l-63 -336h-88z" />
    <glyph glyph-name="I" unicode="I" horiz-adv-x="246" 
d="M167 714h88l-135 -714h-88z" />
    <glyph glyph-name="J" unicode="J" horiz-adv-x="385" 
d="M-33 6l19 76q36 -15 90 -15q59 0 94 37t52 128l92 482h87l-93 -492q-23 -124 -78.5 -179t-156.5 -55q-68 0 -106 18z" />
    <glyph glyph-name="K" unicode="K" horiz-adv-x="545" 
d="M33 0l135 714h88l-66 -347l5 1q14 17 39.5 45.5t30.5 33.5l251 267h110l-301 -307l185 -407h-97l-156 351l-85 -80l-52 -271h-87z" />
    <glyph glyph-name="L" unicode="L" horiz-adv-x="468" 
d="M33 0l135 714h88l-121 -638h288l-15 -76h-375z" />
    <glyph glyph-name="M" unicode="M" horiz-adv-x="826" 
d="M716 0h-85l51 386q22 153 39 241h-4q-68 -150 -111 -230l-212 -393h-68l-53 385q-15 120 -22 238h-2q-7 -29 -26.5 -117t-28.5 -124l-98 -386h-82l185 714h112l57 -410q16 -130 17 -178h3q31 75 83 176l222 412h114z" />
    <glyph glyph-name="N" unicode="N" horiz-adv-x="669" 
d="M115 0h-82l135 714h97l164 -405q39 -103 63 -199l2 1q6 94 29 224l72 379h84l-137 -714h-86l-163 404q-44 111 -66 205l-3 -1q-10 -87 -38 -235z" />
    <glyph glyph-name="O" unicode="O" horiz-adv-x="707" 
d="M427 726q69 0 122.5 -24t84.5 -65.5t46.5 -93t15.5 -110.5q0 -96 -34 -189.5t-95 -155.5q-102 -100 -245 -100q-67 0 -120 24t-85 65t-49 92.5t-17 109.5q0 63 16 127t47 122.5t74 100.5q45 45 108.5 71t130.5 26zM415 651q-93 0 -163 -72q-50 -49 -79.5 -132t-29.5 -161
q0 -45 10.5 -84t32.5 -71t60 -50t89 -18q92 0 163 70q48 49 77 133.5t29 162.5q0 33 -4.5 62.5t-17.5 59.5t-33 51.5t-54.5 35t-79.5 13.5z" />
    <glyph glyph-name="P" unicode="P" horiz-adv-x="537" 
d="M33 0l134 703q67 16 155 16q117 0 175 -55q52 -48 52 -129q0 -57 -24 -106t-62 -80q-80 -68 -216 -68q-36 0 -73 5l-54 -286h-87zM240 640l-52 -280q35 -7 70 -7q90 0 146 49.5t56 126.5q0 60 -38.5 89t-103.5 29q-50 0 -78 -7z" />
    <glyph glyph-name="Q" unicode="Q" horiz-adv-x="707" 
d="M624 -26l-34 -74q-67 16 -142.5 39t-105.5 36q-42 14 -49 14q-104 6 -173 83.5t-69 207.5q0 94 35 188t97 156q47 48 111.5 75t132.5 27q56 0 102 -16.5t76.5 -44t51.5 -65.5t30 -79.5t9 -87.5q0 -91 -33 -185t-92 -153q-62 -62 -137 -82v-3q134 -28 190 -36zM415 651
q-92 0 -162 -69q-50 -51 -80 -135.5t-30 -162.5q0 -45 10.5 -83t31.5 -70.5t58.5 -51t87.5 -18.5q93 0 165 70q50 50 79 136t29 164q0 25 -3.5 49t-11 49.5t-21.5 47t-34 38.5t-50.5 26.5t-68.5 9.5z" />
    <glyph glyph-name="R" unicode="R" horiz-adv-x="554" 
d="M33 0l134 703q73 16 156 16q114 0 171 -52q53 -46 53 -118q0 -75 -49 -131t-121 -76l-1 -2q71 -24 80 -144q6 -90 10.5 -133t11.5 -63h-91q-8 27 -17 173q-3 48 -16 79t-37 45t-60 14h-78l-58 -311h-88zM243 641l-50 -262h78q82 0 132.5 46.5t50.5 112.5q0 28 -10 49.5
t-28.5 34.5t-43.5 19.5t-55 6.5q-47 0 -74 -7z" />
    <glyph glyph-name="S" unicode="S" horiz-adv-x="493" 
d="M13 38l31 72q66 -45 152 -45q64 0 109.5 36t45.5 98q0 40 -25 71.5t-80 62.5q-142 76 -142 183q0 93 70 151.5t171 58.5q89 0 147 -38l-32 -71q-60 34 -124 32q-32 0 -59 -10t-44.5 -26.5t-27.5 -37t-10 -42.5q0 -29 12.5 -51.5t35.5 -41t62 -40.5q34 -18 58.5 -37
t42.5 -42t27 -51t9 -60q0 -96 -70 -158.5t-188 -62.5q-52 0 -100 14.5t-71 34.5z" />
    <glyph glyph-name="T" unicode="T" horiz-adv-x="502" 
d="M157 0l121 638h-209l15 76h506l-15 -76h-210l-120 -638h-88z" />
    <glyph glyph-name="U" unicode="U" horiz-adv-x="657" 
d="M167 714h88l-80 -423q-9 -47 -9 -90q0 -67 36 -102t97 -35q157 0 199 225l81 425h88l-81 -427q-58 -299 -299 -299q-94 0 -151.5 53t-57.5 158q0 49 10 99z" />
    <glyph glyph-name="V" unicode="V" horiz-adv-x="570" 
d="M273 0h-96l-89 714h90l52 -458q12 -108 14 -161h3q40 100 78 173l227 446h97z" />
    <glyph glyph-name="W" unicode="W" horiz-adv-x="878" 
d="M232 0h-94l-35 714h89l15 -428q2 -75 0 -186h2q34 93 74 181l197 433h94l15 -411q4 -117 2 -201h2q35 100 70 183l192 429h92l-332 -714h-92l-19 406q-3 95 2 205h-3q-42 -122 -72 -187z" />
    <glyph glyph-name="X" unicode="X" horiz-adv-x="551" 
d="M494 0h-94l-67 177q-30 73 -46 125h-2q-51 -78 -84 -123l-128 -179h-105l279 363l-135 351h94l67 -183q28 -78 36 -108h2q54 81 74 108l136 183h105l-275 -350z" />
    <glyph glyph-name="Y" unicode="Y" horiz-adv-x="547" 
d="M257 0h-86l56 297l-138 417h94l69 -231q21 -73 30 -120h2q44 73 76 123l155 228h103l-304 -416z" />
    <glyph glyph-name="Z" unicode="Z" horiz-adv-x="554" 
d="M-21 0l10 54l485 582v3h-341l15 75h458l-11 -57l-481 -579l1 -3h375l-14 -75h-497z" />
    <glyph glyph-name="bracketleft" unicode="[" horiz-adv-x="300" 
d="M206 -118h-186l161 845h186l-11 -57h-113l-140 -730h113z" />
    <glyph glyph-name="backslash" unicode="\" horiz-adv-x="348" 
d="M327 -42h-69l-193 768h68z" />
    <glyph glyph-name="bracketright" unicode="]" horiz-adv-x="300" 
d="M115 727h186l-161 -845h-186l11 58h114l140 730h-114z" />
    <glyph glyph-name="asciicircum" unicode="^" horiz-adv-x="631" 
d="M566 200h-72l-173 411h-3l-173 -411h-72l215 489h64z" />
    <glyph glyph-name="underscore" unicode="_" horiz-adv-x="529" 
d="M-52 -79h530l-11 -53h-530z" />
    <glyph glyph-name="grave" unicode="`" 
d="M153 727h99l70 -152h-62z" />
    <glyph glyph-name="a" unicode="a" horiz-adv-x="552" 
d="M451 0h-81q0 35 11 132h-2q-76 -144 -199 -144q-67 0 -107 48t-40 122q0 67 24.5 132t68.5 117.5t112.5 84.5t149.5 32q77 0 137 -20l-51 -267q-26 -136 -23 -237zM397 292l30 155q-30 7 -62 7q-64 0 -120 -40t-88.5 -105t-32.5 -135q0 -49 20.5 -81.5t67.5 -32.5
q57 0 112 66.5t73 165.5z" />
    <glyph glyph-name="b" unicode="b" horiz-adv-x="556" 
d="M168 752h88l-67 -332h2q33 50 80 77t100 27q40 0 71 -15.5t48.5 -42.5t26 -58.5t8.5 -67.5q0 -48 -13 -97t-40 -94.5t-64 -81.5t-89.5 -57.5t-111.5 -21.5q-73 0 -115.5 32.5t-42.5 100.5q0 30 8 79zM157 252l-12 -54q-8 -31 -6 -65q0 -76 82 -76q48 0 89.5 26.5t67.5 67
t41 87.5t15 90q0 53 -24 88t-73 35q-38 0 -74.5 -24t-65 -70t-40.5 -105z" />
    <glyph glyph-name="c" unicode="c" horiz-adv-x="448" 
d="M374 90l8 -70q-64 -31 -148 -31q-95 0 -146 56t-51 143t39.5 163.5t112 124t162.5 47.5q32 0 62 -7t45 -15l-26 -70q-40 19 -87 19q-63 0 -114 -38t-77 -95t-26 -119q0 -63 33 -100t94 -37q59 0 119 29z" />
    <glyph glyph-name="d" unicode="d" horiz-adv-x="556" 
d="M487 752h88l-112 -590q-18 -87 -22 -162h-81l14 102h-2q-72 -114 -184 -114q-73 0 -113.5 52.5t-40.5 134.5q0 90 41 170.5t114.5 129.5t161.5 49q53 0 91 -18zM393 253l35 179q-33 21 -85 21q-59 0 -110 -38t-79.5 -99.5t-28.5 -129.5q0 -33 8 -60t30.5 -46.5
t57.5 -19.5q54 0 105 55t67 138z" />
    <glyph glyph-name="e" unicode="e" horiz-adv-x="479" 
d="M387 95l12 -65q-69 -41 -169 -41q-97 0 -146 57.5t-49 148.5q0 58 21 116.5t56.5 106t89 77t113.5 29.5q70 0 110 -37t40 -94q0 -173 -341 -167q-4 -16 -1 -47t12 -51q30 -69 114 -69q70 0 138 36zM380 390q0 31 -21 48.5t-57 17.5q-59 0 -104.5 -48.5t-62.5 -114.5
q55 0 96.5 4t77 14.5t53.5 30t18 48.5z" />
    <glyph glyph-name="f" unicode="f" horiz-adv-x="299" 
d="M129 0h-87l84 444h-68l13 69h69l5 26q20 123 84 179q49 46 122 46q48 0 70 -14l-20 -70q-20 10 -51 10q-92 0 -119 -153l-4 -24h114l-14 -69h-113z" />
    <glyph glyph-name="g" unicode="g" horiz-adv-x="555" 
d="M10 -185l25 68q55 -33 136 -33q69 0 115.5 42t68.5 141l17 76h-3q-67 -109 -178 -109q-74 0 -115 52.5t-41 125.5q0 65 23 127.5t64.5 111t103.5 78t134 29.5q88 0 164 -36l-78 -423q-17 -86 -41 -141t-63 -88q-65 -57 -179 -57q-98 0 -153 36zM395 266l33 170
q-36 17 -85 17q-61 0 -112 -38.5t-77.5 -98t-27.5 -123.5q0 -23 4.5 -43.5t15 -39t31 -29.5t48.5 -11q55 0 105.5 59.5t64.5 136.5z" />
    <glyph glyph-name="h" unicode="h" horiz-adv-x="565" 
d="M118 0h-88l143 752h88l-64 -330h2q72 102 183 102q24 0 45.5 -7.5t40.5 -22.5t30.5 -43t11.5 -64q0 -45 -9 -87l-57 -300h-88l57 296q7 38 7 71q0 18 -4.5 33t-14 26.5t-25 18t-36.5 6.5q-53 0 -106 -55.5t-69 -139.5z" />
    <glyph glyph-name="i" unicode="i" horiz-adv-x="242" 
d="M118 0h-88l98 513h88zM195 601q-11 0 -20.5 4t-16.5 11.5t-10.5 17.5t-3.5 22t4.5 23t12.5 19t19 12.5t22 4.5q24 0 38 -15.5t14 -39.5q-1 -26 -17.5 -42.5t-41.5 -16.5z" />
    <glyph glyph-name="j" unicode="j" horiz-adv-x="240" 
d="M132 513h88l-97 -511q-24 -129 -65 -174q-45 -49 -117 -49q-38 0 -59 6l11 69q19 -4 40 -4q37 0 61.5 29t38.5 104zM195 601q-11 0 -20.5 4t-16.5 11.5t-10.5 17.5t-3.5 22q1 25 17.5 42t40.5 17t38 -15.5t14 -39.5q-1 -26 -17.5 -42.5t-41.5 -16.5z" />
    <glyph glyph-name="k" unicode="k" horiz-adv-x="483" 
d="M118 0h-87l142 752h88l-90 -471h2q7 8 24 26t23 26l181 180h109l-224 -211l154 -302h-98l-123 253l-64 -58z" />
    <glyph glyph-name="l" unicode="l" horiz-adv-x="242" 
d="M118 0h-87l143 752h88z" />
    <glyph glyph-name="m" unicode="m" horiz-adv-x="855" 
d="M115 0h-85l69 363q14 77 23 150h77l-14 -97h4q23 35 52 59.5t61.5 36.5t66.5 12q16 0 30.5 -3t26.5 -8t21.5 -13t16.5 -18t12.5 -21.5t8 -24t3.5 -26.5q70 113 189 114q50 0 87 -33.5t37 -100.5q0 -41 -9 -87l-57 -303h-86l55 296q8 33 8 66q0 89 -77 89q-50 0 -97.5 -53
t-62.5 -135l-50 -263h-85l57 301q7 33 7 62q0 88 -77 88q-49 0 -99 -57t-65 -137z" />
    <glyph glyph-name="n" unicode="n" horiz-adv-x="565" 
d="M118 0h-88l69 363q7 37 24 150h78l-12 -101h2q34 54 83.5 83t105.5 29q54 0 92.5 -34t38.5 -109q0 -33 -10 -82l-57 -299h-88l56 296q8 35 8 65q0 90 -81 90q-51 0 -104.5 -56t-70.5 -146z" />
    <glyph glyph-name="o" unicode="o" horiz-adv-x="552" 
d="M321 524q66 0 112.5 -31t67 -78.5t20.5 -104.5q0 -59 -20.5 -116.5t-56.5 -103t-90.5 -74t-116.5 -28.5q-93 0 -146.5 60.5t-53.5 150.5q0 84 35.5 158.5t101.5 120.5t147 46zM311 454q-52 0 -95.5 -38.5t-65.5 -96t-22 -117.5q0 -64 32.5 -104t88.5 -40q50 0 92.5 38.5
t66 96.5t23.5 118q0 25 -6 48.5t-19 45.5t-37.5 35.5t-57.5 13.5z" />
    <glyph glyph-name="p" unicode="p" horiz-adv-x="556" 
d="M71 -210h-87l103 541q15 87 28 182h81l-15 -97h2q36 51 84.5 79.5t100.5 28.5q78 0 117.5 -53.5t39.5 -131.5q0 -90 -38.5 -170.5t-108.5 -130.5t-152 -50q-71 0 -112 24h-2zM154 229l-26 -143q36 -29 98 -29q54 0 103 41t77 104.5t28 130.5q0 47 -23.5 82.5t-74.5 35.5
q-56 0 -110 -60.5t-72 -161.5z" />
    <glyph glyph-name="q" unicode="q" horiz-adv-x="556" 
d="M392 -210h-87l62 303h-3q-31 -49 -79.5 -77t-98.5 -28q-73 0 -112.5 53.5t-39.5 133.5q0 64 23.5 126.5t64.5 112t103.5 80t134.5 30.5q90 0 164 -34zM394 258l34 177q-32 18 -86 18q-87 0 -151.5 -80t-65.5 -188q0 -59 24 -92t65 -33q61 0 113 59t67 139z" />
    <glyph glyph-name="r" unicode="r" horiz-adv-x="336" 
d="M118 0h-88l62 331q15 78 27 182h77q-8 -72 -14 -112h3q13 27 29 49t36 39t43.5 26t48.5 9q12 0 25 -2l-17 -87q-11 3 -24 3q-56 0 -102.5 -60.5t-63.5 -151.5z" />
    <glyph glyph-name="s" unicode="s" horiz-adv-x="395" 
d="M10 24l24 65q52 -32 110 -32q43 0 70.5 24.5t27.5 59.5q0 30 -16 51t-55 43q-93 51 -93 130q0 68 52.5 113.5t133.5 45.5q69 0 107 -25l-25 -67q-39 24 -89 24q-39 0 -65 -22t-26 -56q0 -26 17 -45.5t53 -40.5q97 -55 97 -134t-56 -124t-140 -45q-39 0 -74 10.5t-53 24.5
z" />
    <glyph glyph-name="t" unicode="t" horiz-adv-x="331" 
d="M168 628l92 22l-27 -137h123l-14 -69h-123l-47 -249q-10 -52 -10 -83q0 -48 49 -48q24 0 41 3l-4 -69q-24 -10 -68 -10q-55 0 -81.5 28.5t-26.5 71.5t11 96l50 260h-74l14 69h73z" />
    <glyph glyph-name="u" unicode="u" horiz-adv-x="557" 
d="M442 513h88l-69 -364q-14 -77 -23 -149h-80l14 96h-2q-35 -50 -83 -79t-98 -29q-27 0 -49.5 7.5t-42.5 23t-31.5 46t-11.5 72.5q0 35 10 85l55 291h88l-54 -286q-10 -43 -10 -76q0 -88 83 -88q50 0 100.5 53t65.5 134z" />
    <glyph glyph-name="v" unicode="v" horiz-adv-x="482" 
d="M54 513h90l45 -293q15 -123 15 -126h4q21 56 54 120l156 299h97l-285 -513h-87z" />
    <glyph glyph-name="w" unicode="w" horiz-adv-x="748" 
d="M65 513h86l18 -288q5 -62 3 -138h3q19 55 56 128l152 298h77l32 -293q9 -100 8 -133h2q20 58 49 129l139 297h89l-254 -513h-81l-34 279q-7 66 -7 135h-3q-50 -116 -59 -133l-147 -281h-82z" />
    <glyph glyph-name="x" unicode="x" horiz-adv-x="467" 
d="M67 513h95l50 -113q22 -51 34 -81h3q42 59 56 77l94 117h102l-216 -250l121 -263h-96l-52 115q-14 32 -37 92h-2q-34 -53 -53 -79l-103 -128h-102l224 264z" />
    <glyph glyph-name="y" unicode="y" horiz-adv-x="467" 
d="M51 513h91l51 -277q15 -75 23 -134h2q31 74 55 125l131 286h93l-192 -390q-46 -93 -87 -157.5t-90 -111.5q-26 -27 -57 -47.5t-53 -29t-39 -12.5l-21 75q60 23 94 50q59 46 98 117q5 10 4 24z" />
    <glyph glyph-name="z" unicode="z" horiz-adv-x="439" 
d="M-22 0l9 54l249 277q34 37 106 107l1 3h-262l13 72h369l-12 -59l-245 -273q-62 -67 -106 -106v-3h283l-13 -72h-392z" />
    <glyph glyph-name="braceleft" unicode="{" horiz-adv-x="300" 
d="M35 279l9 53q49 0 70 21.5t28 57.5q3 19 5.5 43.5t3 44.5t3 44.5t6.5 44.5q26 139 168 139h25l-11 -57h-19q-77 -2 -95 -93q-4 -21 -5.5 -48.5t-3 -56t-5.5 -51.5q-16 -95 -96 -116v-2q57 -15 57 -75q0 -40 -27 -118q-27 -71 -27 -105q0 -64 63 -65h19l-11 -58h-19
q-58 0 -91 28t-33 80q0 42 28 123t28 108q0 58 -70 58z" />
    <glyph glyph-name="bar" unicode="|" horiz-adv-x="229" 
d="M101 795h65v-1060h-65v1060z" />
    <glyph glyph-name="braceright" unicode="}" horiz-adv-x="300" 
d="M280 329l-10 -54q-49 0 -70 -21.5t-27 -56.5q-6 -30 -9.5 -89t-8.5 -88q-13 -70 -57 -104t-112 -34h-25l11 58h20q76 0 95 91q5 25 7 77t7 80q16 95 95 114v2q-28 8 -42 28.5t-14 47.5q0 35 27 116q27 84 27 107q0 65 -64 67h-19l11 57h20q57 0 90.5 -28t33.5 -80
q0 -49 -29 -126q-27 -79 -27 -107q0 -9 2.5 -17.5t9 -18t21.5 -15.5t37 -6z" />
    <glyph glyph-name="asciitilde" unicode="~" horiz-adv-x="631" 
d="M130 225h-63q-3 74 33 115t93 41q52 0 142 -45q85 -45 129 -45q57 0 57 87h64q3 -82 -31.5 -120t-90.5 -38t-148 48q-83 43 -124 43q-18 0 -31.5 -10t-21 -29.5t-8.5 -46.5z" />
    <glyph glyph-name="uni00A0" unicode="&#xa0;" horiz-adv-x="192" 
 />
    <glyph glyph-name="exclamdown" unicode="&#xa1;" horiz-adv-x="250" 
d="M87 -210h-100l113 506h69zM168 518q26 0 42.5 -17.5t16.5 -43.5q0 -30 -19 -50.5t-47 -20.5q-27 0 -43 18t-16 45q0 29 18.5 49t47.5 20z" />
    <glyph glyph-name="cent" unicode="&#xa2;" horiz-adv-x="521" 
d="M288 -15h-63l20 107q-80 14 -121 72q-38 51 -38 128q0 120 76 210t184 105l21 106h63l-20 -104q25 0 53.5 -8t42.5 -18l-29 -67q-47 24 -102 24q-76 0 -136 -70t-60 -170q0 -62 34.5 -100.5t96.5 -38.5q54 0 110 24l8 -66q-19 -11 -52.5 -19t-67.5 -8z" />
    <glyph glyph-name="sterling" unicode="&#xa3;" horiz-adv-x="521" 
d="M452 0h-427l10 54q51 24 88.5 71t50.5 101q7 26 9 88h-95l13 65h83q3 79 13 132q19 88 76 138.5t144 50.5q61 0 97 -24l-27 -68q-32 18 -79 18q-54 0 -87 -34.5t-43 -93.5q-9 -50 -9 -119h157l-13 -65h-147q-2 -45 -12 -84q-20 -92 -97 -153v-2h308z" />
    <glyph glyph-name="currency" unicode="&#xa4;" horiz-adv-x="521" 
d="M279 566q76 0 121 -43l76 79l46 -49l-81 -74q37 -50 37 -126q0 -80 -37 -128l79 -77l-46 -48l-74 80q-23 -21 -56 -32.5t-66 -11.5q-22 0 -44 5t-42 14.5t-34 22.5l-70 -78l-48 48l78 73q-40 53 -40 128q0 77 42 130l-81 73l48 50l73 -80q45 44 119 44zM278 502
q-58 0 -93 -43.5t-35 -107.5q0 -74 39.5 -113t88.5 -39q52 0 90 38.5t38 114.5q0 62 -34 106t-94 44z" />
    <glyph glyph-name="yen" unicode="&#xa5;" horiz-adv-x="521" 
d="M248 0h-83l35 186h-154l9 52h155l15 78h-155l11 52h129l-109 321h90l62 -219q23 -88 26 -97h3q24 47 59 99l151 217h95l-241 -321h129l-11 -52h-156l-15 -78h156l-9 -52h-157z" />
    <glyph glyph-name="brokenbar" unicode="&#xa6;" horiz-adv-x="229" 
d="M101 184h65v-370h-65v370zM101 714h65v-371h-65v371z" />
    <glyph glyph-name="section" unicode="&#xa7;" horiz-adv-x="530" 
d="M161 372q0 -31 18 -54t69 -48q69 -33 97 -54q18 11 31.5 25.5t21.5 32.5t8 36q0 28 -17.5 52t-62.5 48q-65 31 -98 53q-31 -16 -49 -40.5t-18 -50.5zM502 691l-26 -59q-53 32 -119 32q-46 0 -79 -24t-33 -62q0 -31 23.5 -50.5t82.5 -46.5q31 -15 53.5 -29t41 -31.5
t28 -40t9.5 -48.5q0 -92 -94 -152q25 -30 25 -75q0 -56 -31.5 -95.5t-77.5 -56.5t-99 -17q-46 0 -88 11.5t-68 31.5l26 60q66 -41 133 -41q26 0 48.5 6.5t39 19t26 30t9.5 38.5q0 30 -22.5 54t-82.5 52q-70 33 -107 67.5t-37 83.5q0 43 27.5 82t77.5 67q-24 29 -24 68
q0 48 28.5 85t74 56t100.5 19q26 0 53 -5t47.5 -13t34.5 -17z" />
    <glyph glyph-name="dieresis" unicode="&#xa8;" 
d="M182 604q-22 0 -36 14.5t-14 37.5t16 39.5t40 16.5q22 0 35.5 -15t13.5 -37q0 -24 -15.5 -40t-39.5 -16zM376 604q-22 0 -36 14.5t-14 37.5t16 39.5t39 16.5t36.5 -15t13.5 -37q0 -24 -15.5 -40t-39.5 -16z" />
    <glyph glyph-name="copyright" unicode="&#xa9;" horiz-adv-x="715" 
d="M389 686q87 0 160 -43.5t115 -118.5t42 -164q0 -90 -42 -165.5t-115 -119t-160 -43.5q-89 0 -163 43.5t-116 119t-42 165.5q0 89 42 164t116 118.5t163 43.5zM388 643q-113 0 -190.5 -82.5t-77.5 -203.5q0 -119 77.5 -200.5t190.5 -81.5q112 0 189 82t77 203
q0 119 -77 201t-189 82zM531 522l-13 -42q-44 25 -104 25q-71 0 -109 -41t-38 -107q0 -65 39 -107t109 -42q67 0 108 28l13 -40q-49 -34 -130 -34q-90 0 -142 54t-52 138q0 58 28.5 104t74 69.5t98.5 23.5q39 0 72 -9t46 -20z" />
    <glyph glyph-name="ordfeminine" unicode="&#xaa;" horiz-adv-x="370" 
d="M344 282h-62q0 36 4 69l-2 -1q-46 -74 -122 -74q-46 0 -73.5 33.5t-27.5 88.5q0 59 25.5 110t78.5 84.5t123 33.5q54 0 104 -18l-39 -218q-6 -36 -9 -108zM297 447l22 119q-18 7 -49 7q-56 0 -97 -47.5t-42 -115.5q0 -34 14 -56t45 -22q35 0 66.5 34t40.5 81z" />
    <glyph glyph-name="guillemotleft" unicode="&#xab;" horiz-adv-x="433" 
d="M268 462l-161 -197l108 -193h-71l-109 195l156 195h77zM442 462l-161 -197l108 -193h-71l-110 195l156 195h78z" />
    <glyph glyph-name="logicalnot" unicode="&#xac;" horiz-adv-x="631" 
d="M52 423h531v-296h-67v233h-464v63z" />
    <glyph glyph-name="uni00AD" unicode="&#xad;" horiz-adv-x="325" 
d="M51 321h253l-13 -69h-254z" />
    <glyph glyph-name="registered" unicode="&#xae;" horiz-adv-x="418" 
d="M239 529v-69h-40v172q32 7 67 7q41 0 60 -14q18 -13 18 -37q0 -15 -10 -25.5t-26 -15.5v-2q23 -8 31 -43q6 -32 13 -42h-43q-6 8 -13 41q-7 28 -36 28h-21zM240 607v-50h20q41 0 41 26t-38 26q-12 0 -23 -2zM268 724q74 0 125.5 -51t51.5 -123q0 -74 -51 -124.5
t-126 -50.5t-127 50.5t-52 124.5q0 72 52 123t127 51zM267 689q-37 0 -68 -19t-48.5 -50.5t-17.5 -69.5q0 -59 38.5 -99t96.5 -40q57 0 94.5 40t37.5 99q0 58 -38 98.5t-95 40.5z" />
    <glyph glyph-name="macron" unicode="&#xaf;" 
d="M172 684h232l-11 -57h-232z" />
    <glyph glyph-name="degree" unicode="&#xb0;" horiz-adv-x="336" 
d="M238 727q61 0 98.5 -39.5t37.5 -94.5q0 -61 -43 -102t-98 -41q-58 0 -96 39.5t-38 95.5q-1 38 18 71t51.5 52t69.5 19zM237 677q-36 0 -58.5 -28.5t-22.5 -62.5q0 -37 23 -61.5t56 -24.5q34 0 58 26.5t24 64.5q0 33 -20 59.5t-60 26.5z" />
    <glyph glyph-name="plusminus" unicode="&#xb1;" horiz-adv-x="631" 
d="M292 606h65v-207h233v-62h-233v-213h-65v213h-233v62h233v207zM59 63h531v-63h-531v63z" />
    <glyph glyph-name="twosuperior" unicode="&#xb2;" horiz-adv-x="315" 
d="M328 430h-278l7 41l78 63q43 35 68 56.5t50 47.5t36 49t11 46q0 15 -5.5 27t-20.5 20.5t-38 8.5q-43 0 -90 -32l-16 48q59 44 128 44q56 0 88 -30.5t32 -76.5q0 -25 -10.5 -49.5t-24.5 -44t-41 -45t-46 -41t-54 -42.5l-38 -30v-2h176z" />
    <glyph glyph-name="threesuperior" unicode="&#xb3;" horiz-adv-x="308" 
d="M145 764l-12 49q51 36 118 36q37 0 64 -13t40 -33.5t13 -45.5q0 -18 -7.5 -34.5t-20.5 -29t-30.5 -22.5t-38.5 -16v-2q34 -9 55 -35t21 -60q0 -60 -48.5 -96.5t-124.5 -36.5q-36 0 -67.5 8.5t-49.5 22.5l25 50q39 -27 92 -27q45 0 71.5 23t26.5 56q0 34 -28 51.5
t-68 17.5h-22l9 48h22q39 0 72.5 20t33.5 52q0 48 -60 48q-47 0 -86 -31z" />
    <glyph glyph-name="acute" unicode="&#xb4;" 
d="M318 727h106l-141 -152h-69z" />
    <glyph glyph-name="mu" unicode="&#xb5;" horiz-adv-x="556" 
d="M208 513l-58 -304q-13 -69 8 -107.5t78 -38.5q38 0 73 31.5t59 76.5q15 27 22 62l53 280h88l-69 -365q-8 -50 -1.5 -68.5t31.5 -20.5l-20 -66q-12 -5 -28 -5q-72 0 -67 106h-3q-25 -45 -65.5 -74.5t-89.5 -29.5q-35 0 -62.5 16t-41.5 46l-12 -69q-25 -145 -21 -193h-80
q-10 47 17 191l102 532h87z" />
    <glyph glyph-name="paragraph" unicode="&#xb6;" horiz-adv-x="523" 
d="M234 -52h-63l64 332q-2 0 -5.5 0.5t-5.5 1.5q-16 2 -32.5 8t-32.5 16t-30.5 25.5t-25.5 34t-17.5 43.5t-6.5 53q0 73 37.5 130t112 90.5t176.5 33.5q79 0 116 -8l-146 -760h-64l135 707h-76z" />
    <glyph glyph-name="periodcentered" unicode="&#xb7;" horiz-adv-x="223" 
d="M112 210q-26 0 -42.5 17.5t-16.5 44.5q0 30 19 50.5t48 20.5q26 0 42.5 -17.5t16.5 -45.5q0 -19 -8.5 -35t-24 -25.5t-34.5 -9.5z" />
    <glyph glyph-name="cedilla" unicode="&#xb8;" 
d="M141 2h56l-41 -55q26 -6 41.5 -24.5t15.5 -43.5q0 -28 -16.5 -49.5t-42.5 -32t-57 -10.5q-43 0 -69 18l20 46q23 -15 54 -15q12 0 22.5 4t17 13t6.5 21q0 33 -70 41z" />
    <glyph glyph-name="onesuperior" unicode="&#xb9;" horiz-adv-x="241" 
d="M214 430h-72l67 349h-2l-77 -35l-6 53l105 46h64z" />
    <glyph glyph-name="ordmasculine" unicode="&#xba;" horiz-adv-x="365" 
d="M244 626q69 0 107 -41t38 -102q0 -88 -55 -147.5t-137 -59.5q-44 0 -77 20.5t-49 52t-16 68.5q0 90 55.5 149.5t133.5 59.5zM238 573q-47 0 -79.5 -46t-32.5 -107q0 -43 21.5 -67.5t55.5 -24.5q46 0 80 45.5t34 112.5q0 36 -18 61.5t-61 25.5z" />
    <glyph glyph-name="guillemotright" unicode="&#xbb;" horiz-adv-x="432" 
d="M168 270l-108 192h71l111 -195l-157 -195h-78zM342 270l-108 192h71l110 -195l-157 -195h-77z" />
    <glyph glyph-name="onequarter" unicode="&#xbc;" horiz-adv-x="795" 
d="M653 0h-70l21 109h-205l9 41l246 268h78l-49 -257h62l-11 -52h-60zM613 161l24 125q3 13 17 67h-3q-7 -10 -22 -30.5t-23 -30.5l-121 -130l1 -1h127zM210 282h-73l66 348h-2l-75 -35l-7 53l106 47h64zM168 -12h-65l515 712h65z" />
    <glyph glyph-name="onehalf" unicode="&#xbd;" horiz-adv-x="795" 
d="M206 282h-74l67 348h-2l-76 -35l-7 53l106 47h64zM148 -12h-64l517 712h63zM699 0h-278l8 41l77 63q46 37 68.5 57t49 47t37.5 49.5t11 45.5q0 15 -6 27t-20.5 20.5t-37.5 8.5q-44 0 -90 -32l-17 48q61 43 129 43q28 0 50.5 -8t37.5 -22.5t23 -34t8 -42.5
q0 -30 -13 -58.5t-42 -58.5t-53.5 -50.5t-67.5 -53.5l-38 -30v-2h176z" />
    <glyph glyph-name="threequarters" unicode="&#xbe;" horiz-adv-x="795" 
d="M204 -12h-65l515 712h65zM130 615l-10 49q50 36 117 36q37 0 64 -12.5t40 -33t13 -45.5q0 -36 -26.5 -62.5t-70.5 -40.5v-2q34 -9 55 -34.5t21 -59.5q-1 -60 -49 -97t-124 -37q-35 0 -67 9t-50 22l25 51q37 -27 91 -27q46 0 72 23t26 56q0 34 -27.5 51.5t-68.5 17.5h-21
l9 47h22q39 0 73 20.5t34 52.5q0 47 -61 47q-46 0 -87 -31zM664 0h-70l21 109h-204l9 41l245 268h79l-49 -257h61l-9 -52h-62zM625 161l23 125q3 13 17 67h-2q-7 -10 -22 -30.5t-23 -30.5l-121 -130l1 -1h127z" />
    <glyph glyph-name="questiondown" unicode="&#xbf;" horiz-adv-x="406" 
d="M202 302h85q0 -9 -2 -28q-7 -91 -105 -192q-44 -46 -67 -81.5t-23 -72.5q0 -32 19.5 -53.5t62.5 -21.5q58 0 104 28l17 -64q-67 -38 -143 -38q-50 0 -85.5 21t-50.5 51.5t-15 65.5q0 51 29.5 99t84.5 104q75 77 85 152zM276 519q26 0 42.5 -18t16.5 -44q0 -30 -19 -50
t-48 -20q-27 0 -43 17.5t-16 44.5q0 29 19 49.5t48 20.5z" />
    <glyph glyph-name="Agrave" unicode="&#xc0;" horiz-adv-x="601" 
d="M247 877h109l79 -124h-72zM425 226h-247l-113 -226h-94l370 714h104l98 -714h-90zM210 296h207l-27 206q-8 73 -13 131h-2q-3 -6 -24.5 -55t-33.5 -75z" />
    <glyph glyph-name="Aacute" unicode="&#xc1;" horiz-adv-x="601" 
d="M449 877h115l-144 -125h-79zM425 226h-247l-113 -226h-94l370 714h104l98 -714h-90zM210 296h207l-27 206q-8 73 -13 131h-2q-3 -6 -24.5 -55t-33.5 -75z" />
    <glyph glyph-name="Acircumflex" unicode="&#xc2;" horiz-adv-x="601" 
d="M378 877h69l85 -125h-72l-52 76h-2l-77 -76h-78zM425 226h-247l-113 -226h-94l370 714h104l98 -714h-90zM210 296h207l-27 206q-8 73 -13 131h-2q-3 -6 -24.5 -55t-33.5 -75z" />
    <glyph glyph-name="Atilde" unicode="&#xc3;" horiz-adv-x="601" 
d="M309 757h-49q8 48 31 77t55 29t64 -21q29 -19 47 -19q25 0 36 42h49q-18 -101 -88 -101q-31 0 -63 20q-4 2 -10 6t-9 5.5l-8 4t-9.5 3t-9.5 0.5q-24 0 -36 -46zM425 226h-247l-113 -226h-94l370 714h104l98 -714h-90zM210 296h207l-27 206q-8 73 -13 131h-2
q-3 -6 -24.5 -55t-33.5 -75z" />
    <glyph glyph-name="Adieresis" unicode="&#xc4;" horiz-adv-x="601" 
d="M302 763q-21 0 -35.5 15t-14.5 37t16 39t39 17q22 0 36 -15.5t14 -36.5q0 -23 -16 -39.5t-39 -16.5zM498 763q-21 0 -36 15t-15 37t16 39t39 17q15 0 26.5 -7.5t17.5 -19.5t6 -25q0 -23 -15.5 -39.5t-38.5 -16.5zM425 226h-247l-113 -226h-94l370 714h104l98 -714h-90z
M210 296h207l-27 206q-8 73 -13 131h-2q-3 -6 -24.5 -55t-33.5 -75z" />
    <glyph glyph-name="Aring" unicode="&#xc5;" horiz-adv-x="601" 
d="M408 925q45 0 73.5 -25.5t28.5 -66.5q-1 -43 -33 -70t-77 -27q-28 0 -50.5 11.5t-36 32t-13.5 45.5q-1 43 30 71.5t78 28.5zM406 887q-12 0 -21.5 -4.5t-16 -12.5t-10 -19t-3.5 -24q0 -10 3.5 -19.5t9.5 -16.5t15 -11.5t20 -4.5q22 0 36.5 16t14.5 40.5t-13 40t-35 15.5z
M425 226h-247l-113 -226h-94l370 714h104l98 -714h-90zM210 296h207l-27 206q-8 73 -13 131h-2q-3 -6 -24.5 -55t-33.5 -75z" />
    <glyph glyph-name="AE" unicode="&#xc6;" horiz-adv-x="818" 
d="M39 0h-93l475 714h402l-14 -75h-267l-24 -231h252l-14 -74h-244l-27 -259h272l-13 -75h-349l25 252h-213zM252 325h175l22 207q8 80 13 115h-4q-36 -63 -68 -112z" />
    <glyph glyph-name="Ccedilla" unicode="&#xc7;" horiz-adv-x="591" 
d="M515 96l11 -72q-69 -32 -161 -35l-32 -42q26 -6 41.5 -24.5t15.5 -43.5q0 -14 -4.5 -27t-12.5 -23t-19 -18t-24 -13t-26.5 -7.5t-28.5 -2.5q-44 0 -71 19l21 44q26 -15 53 -15q8 0 16.5 2.5t15 7t10.5 11.5t4 16q0 36 -69 42l55 75q-81 7 -139.5 45t-88.5 102t-30 149
q0 101 39.5 192t112.5 151q115 97 270 97q54 0 95.5 -11t58.5 -24l-28 -71q-50 29 -141 29q-37 0 -74 -9.5t-70 -27.5t-61 -43q-51 -46 -80 -118.5t-29 -151.5q0 -50 12 -91t37 -74t68 -51t100 -18q91 0 153 31z" />
    <glyph glyph-name="Egrave" unicode="&#xc8;" horiz-adv-x="497" 
d="M227 877h109l79 -124h-72zM459 410l-15 -74h-260l-48 -261h292l-15 -75h-380l135 714h365l-15 -75h-275l-44 -229h260z" />
    <glyph glyph-name="Eacute" unicode="&#xc9;" horiz-adv-x="497" 
d="M411 877h114l-144 -125h-78zM459 410l-15 -74h-260l-48 -261h292l-15 -75h-380l135 714h365l-15 -75h-275l-44 -229h260z" />
    <glyph glyph-name="Ecircumflex" unicode="&#xca;" horiz-adv-x="497" 
d="M342 877h69l85 -125h-72l-52 76h-2l-77 -76h-78zM459 410l-15 -74h-260l-48 -261h292l-15 -75h-380l135 714h365l-15 -75h-275l-44 -229h260z" />
    <glyph glyph-name="Edieresis" unicode="&#xcb;" horiz-adv-x="497" 
d="M459 410l-15 -74h-260l-48 -261h292l-15 -75h-380l135 714h365l-15 -75h-275l-44 -229h260zM269 763q-21 0 -36 15t-15 37t16.5 39t38.5 17t36 -15.5t14 -36.5q0 -11 -4 -21.5t-11 -18t-17.5 -12t-21.5 -4.5zM464 763q-21 0 -35.5 15t-14.5 37t16.5 39t38.5 17
q15 0 26.5 -7.5t17.5 -19.5t6 -25q0 -23 -16 -39.5t-39 -16.5z" />
    <glyph glyph-name="Igrave" unicode="&#xcc;" horiz-adv-x="246" 
d="M84 877h109l79 -124h-72zM167 714h88l-135 -714h-88z" />
    <glyph glyph-name="Iacute" unicode="&#xcd;" horiz-adv-x="246" 
d="M267 877h115l-145 -125h-77zM167 714h88l-135 -714h-88z" />
    <glyph glyph-name="Icircumflex" unicode="&#xce;" horiz-adv-x="246" 
d="M198 877h68l85 -125h-72l-52 76h-2l-77 -76h-78zM167 714h88l-135 -714h-88z" />
    <glyph glyph-name="Idieresis" unicode="&#xcf;" horiz-adv-x="246" 
d="M167 714h88l-135 -714h-88zM128 763q-10 0 -19 4t-16 11t-11 16.5t-4 20.5q0 22 16.5 39t38.5 17q23 0 36.5 -15.5t13.5 -36.5q0 -15 -7 -28t-20 -20.5t-28 -7.5zM324 763q-20 0 -35 15t-15 37t16.5 39t38.5 17t35.5 -15.5t13.5 -36.5q0 -15 -7 -28t-19.5 -20.5
t-27.5 -7.5z" />
    <glyph glyph-name="Eth" unicode="&#xd0;" horiz-adv-x="692" 
d="M15 336l16 74h88l55 294q92 15 181 15q86 0 153 -24t105 -70q68 -68 68 -194q0 -97 -39 -187t-108 -148q-120 -99 -320 -99q-103 0 -173 9l63 330h-89zM382 410l-14 -74h-176l-50 -262q40 -5 96 -5q74 0 138.5 25t109.5 70q32 33 55 76t34.5 91t11.5 97q0 101 -56 160
t-182 59q-62 0 -98 -6l-44 -231h175z" />
    <glyph glyph-name="Ntilde" unicode="&#xd1;" horiz-adv-x="669" 
d="M352 758h-50q8 48 31.5 77t55.5 29t63 -21q29 -19 47 -19q24 0 36 43h50q-18 -103 -89 -103q-28 0 -63 20q-2 1 -7 4.5t-7 4.5t-6 3.5t-6 3.5t-5.5 2t-7 1.5t-6.5 0.5q-24 -1 -36 -46zM115 0h-82l135 714h97l164 -405q39 -103 63 -199l2 1q6 94 29 224l72 379h84
l-137 -714h-86l-163 404q-44 111 -66 205l-3 -1q-10 -87 -38 -235z" />
    <glyph glyph-name="Ograve" unicode="&#xd2;" horiz-adv-x="707" 
d="M305 877h109l80 -124h-72zM427 726q69 0 122.5 -24t84.5 -65.5t46.5 -93t15.5 -110.5q0 -96 -34 -189.5t-95 -155.5q-102 -100 -245 -100q-67 0 -120 24t-85 65t-49 92.5t-17 109.5q0 63 16 127t47 122.5t74 100.5q45 45 108.5 71t130.5 26zM415 651q-93 0 -163 -72
q-50 -49 -79.5 -132t-29.5 -161q0 -45 10.5 -84t32.5 -71t60 -50t89 -18q92 0 163 70q48 49 77 133.5t29 162.5q0 33 -4.5 62.5t-17.5 59.5t-33 51.5t-54.5 35t-79.5 13.5z" />
    <glyph glyph-name="Oacute" unicode="&#xd3;" horiz-adv-x="707" 
d="M498 878h115l-145 -125h-78zM427 726q69 0 122.5 -24t84.5 -65.5t46.5 -93t15.5 -110.5q0 -96 -34 -189.5t-95 -155.5q-102 -100 -245 -100q-67 0 -120 24t-85 65t-49 92.5t-17 109.5q0 63 16 127t47 122.5t74 100.5q45 45 108.5 71t130.5 26zM415 651q-93 0 -163 -72
q-50 -49 -79.5 -132t-29.5 -161q0 -45 10.5 -84t32.5 -71t60 -50t89 -18q92 0 163 70q48 49 77 133.5t29 162.5q0 33 -4.5 62.5t-17.5 59.5t-33 51.5t-54.5 35t-79.5 13.5z" />
    <glyph glyph-name="Ocircumflex" unicode="&#xd4;" horiz-adv-x="707" 
d="M427 877h68l84 -125h-72l-51 76h-3l-76 -76h-78zM427 726q69 0 122.5 -24t84.5 -65.5t46.5 -93t15.5 -110.5q0 -96 -34 -189.5t-95 -155.5q-102 -100 -245 -100q-67 0 -120 24t-85 65t-49 92.5t-17 109.5q0 63 16 127t47 122.5t74 100.5q45 45 108.5 71t130.5 26z
M415 651q-93 0 -163 -72q-50 -49 -79.5 -132t-29.5 -161q0 -45 10.5 -84t32.5 -71t60 -50t89 -18q92 0 163 70q48 49 77 133.5t29 162.5q0 33 -4.5 62.5t-17.5 59.5t-33 51.5t-54.5 35t-79.5 13.5z" />
    <glyph glyph-name="Otilde" unicode="&#xd5;" horiz-adv-x="707" 
d="M365 758h-49q7 48 30 77t55 29q33 0 65 -21q27 -19 46 -19q25 0 37 43h48q-17 -103 -87 -103q-27 0 -64 20q-29 20 -46 20q-24 -2 -35 -46zM427 726q69 0 122.5 -24t84.5 -65.5t46.5 -93t15.5 -110.5q0 -96 -34 -189.5t-95 -155.5q-102 -100 -245 -100q-67 0 -120 24
t-85 65t-49 92.5t-17 109.5q0 63 16 127t47 122.5t74 100.5q45 45 108.5 71t130.5 26zM415 651q-93 0 -163 -72q-50 -49 -79.5 -132t-29.5 -161q0 -45 10.5 -84t32.5 -71t60 -50t89 -18q92 0 163 70q48 49 77 133.5t29 162.5q0 33 -4.5 62.5t-17.5 59.5t-33 51.5t-54.5 35
t-79.5 13.5z" />
    <glyph glyph-name="Odieresis" unicode="&#xd6;" horiz-adv-x="707" 
d="M357 763q-21 0 -36 15t-15 37t16 39t39 17q22 0 36 -15.5t14 -36.5q0 -23 -16 -39.5t-38 -16.5zM552 763q-21 0 -35.5 15t-14.5 37q0 14 7.5 27t20 21t27.5 8q22 0 36 -15.5t14 -36.5q0 -23 -16 -39.5t-39 -16.5zM427 726q69 0 122.5 -24t84.5 -65.5t46.5 -93
t15.5 -110.5q0 -96 -34 -189.5t-95 -155.5q-102 -100 -245 -100q-67 0 -120 24t-85 65t-49 92.5t-17 109.5q0 63 16 127t47 122.5t74 100.5q45 45 108.5 71t130.5 26zM415 651q-93 0 -163 -72q-50 -49 -79.5 -132t-29.5 -161q0 -45 10.5 -84t32.5 -71t60 -50t89 -18
q92 0 163 70q48 49 77 133.5t29 162.5q0 33 -4.5 62.5t-17.5 59.5t-33 51.5t-54.5 35t-79.5 13.5z" />
    <glyph glyph-name="multiply" unicode="&#xd7;" horiz-adv-x="631" 
d="M67 511l45 46l217 -235l218 235l45 -45l-219 -233l219 -232l-46 -47l-219 235l-217 -235l-42 48l216 231z" />
    <glyph glyph-name="Oslash" unicode="&#xd8;" horiz-adv-x="706" 
d="M67 -46l-44 43l83 93q-55 79 -55 194q0 95 33.5 184.5t94.5 151.5q33 33 72.5 57t84 36.5t89.5 12.5q111 0 176 -61l80 90l48 -38l-85 -96q50 -73 52 -187q0 -94 -34 -186.5t-92 -154.5q-48 -49 -112.5 -77t-132.5 -28q-108 0 -175 61zM168 164l380 438q-47 49 -133 49
t-156 -65t-99 -165q-42 -142 6 -257h2zM579 542l-375 -431q48 -48 134 -48q79 0 146 60.5t99 158.5q13 41 18.5 83t1 89t-20.5 88h-3z" />
    <glyph glyph-name="Ugrave" unicode="&#xd9;" horiz-adv-x="657" 
d="M290 877h109l80 -124h-72zM167 714h88l-80 -423q-9 -47 -9 -90q0 -67 36 -102t97 -35q157 0 199 225l81 425h88l-81 -427q-58 -299 -299 -299q-94 0 -151.5 53t-57.5 158q0 49 10 99z" />
    <glyph glyph-name="Uacute" unicode="&#xda;" horiz-adv-x="657" 
d="M464 877h115l-144 -125h-78zM167 714h88l-80 -423q-9 -47 -9 -90q0 -67 36 -102t97 -35q157 0 199 225l81 425h88l-81 -427q-58 -299 -299 -299q-94 0 -151.5 53t-57.5 158q0 49 10 99z" />
    <glyph glyph-name="Ucircumflex" unicode="&#xdb;" horiz-adv-x="657" 
d="M414 877h68l85 -125h-71l-53 76h-2l-77 -76h-78zM167 714h88l-80 -423q-9 -47 -9 -90q0 -67 36 -102t97 -35q157 0 199 225l81 425h88l-81 -427q-58 -299 -299 -299q-94 0 -151.5 53t-57.5 158q0 49 10 99z" />
    <glyph glyph-name="Udieresis" unicode="&#xdc;" horiz-adv-x="657" 
d="M332 763q-21 0 -35.5 15t-14.5 37t16 39t39 17q22 0 36 -15.5t14 -36.5q0 -23 -16 -39.5t-39 -16.5zM528 763q-22 0 -36 15t-14 37t16 39t38 17t36 -15.5t14 -36.5q0 -23 -16 -39.5t-38 -16.5zM167 714h88l-80 -423q-9 -47 -9 -90q0 -67 36 -102t97 -35q157 0 199 225
l81 425h88l-81 -427q-58 -299 -299 -299q-94 0 -151.5 53t-57.5 158q0 49 10 99z" />
    <glyph glyph-name="Yacute" unicode="&#xdd;" horiz-adv-x="547" 
d="M410 877h114l-144 -125h-78zM257 0h-86l56 297l-138 417h94l69 -231q21 -73 30 -120h2q44 73 76 123l155 228h103l-304 -416z" />
    <glyph glyph-name="Thorn" unicode="&#xde;" horiz-adv-x="537" 
d="M33 0l135 714h87l-27 -140q39 9 85 9q109 0 163 -55q46 -46 46 -120q0 -78 -41.5 -135.5t-107 -85t-143.5 -27.5q-41 0 -80 5l-31 -165h-86zM214 502l-50 -263q29 -6 74 -6q53 0 97 20t71.5 57.5t27.5 85.5q0 58 -38 86.5t-103 28.5q-47 0 -79 -9z" />
    <glyph glyph-name="germandbls" unicode="&#xdf;" horiz-adv-x="569" 
d="M118 0h-88l93 488q52 276 260 276q76 0 121.5 -43t45.5 -109q0 -32 -13 -63.5t-31 -49.5q-40 -14 -66 -38.5t-26 -59.5q0 -23 9 -41.5t30 -46.5q54 -73 54 -138q0 -86 -59.5 -136.5t-148.5 -50.5q-64 0 -106 25l24 66q38 -21 82 -21q51 0 84.5 30t33.5 78t-39 98
q-54 68 -54 119q0 50 32 88t83 61q23 23 23 73q0 36 -22.5 61.5t-68.5 25.5q-59 0 -99.5 -48.5t-58.5 -142.5z" />
    <glyph glyph-name="agrave" unicode="&#xe0;" horiz-adv-x="552" 
d="M240 727h100l70 -152h-64zM451 0h-81q0 35 11 132h-2q-76 -144 -199 -144q-67 0 -107 48t-40 122q0 67 24.5 132t68.5 117.5t112.5 84.5t149.5 32q77 0 137 -20l-51 -267q-26 -136 -23 -237zM397 292l30 155q-30 7 -62 7q-64 0 -120 -40t-88.5 -105t-32.5 -135
q0 -49 20.5 -81.5t67.5 -32.5q57 0 112 66.5t73 165.5z" />
    <glyph glyph-name="aacute" unicode="&#xe1;" horiz-adv-x="552" 
d="M420 727h105l-142 -152h-68zM451 0h-81q0 35 11 132h-2q-76 -144 -199 -144q-67 0 -107 48t-40 122q0 67 24.5 132t68.5 117.5t112.5 84.5t149.5 32q77 0 137 -20l-51 -267q-26 -136 -23 -237zM397 292l30 155q-30 7 -62 7q-64 0 -120 -40t-88.5 -105t-32.5 -135
q0 -49 20.5 -81.5t67.5 -32.5q57 0 112 66.5t73 165.5z" />
    <glyph glyph-name="acircumflex" unicode="&#xe2;" horiz-adv-x="552" 
d="M349 727h63l73 -152h-65l-46 98h-2l-74 -98h-71zM451 0h-81q0 35 11 132h-2q-76 -144 -199 -144q-67 0 -107 48t-40 122q0 67 24.5 132t68.5 117.5t112.5 84.5t149.5 32q77 0 137 -20l-51 -267q-26 -136 -23 -237zM397 292l30 155q-30 7 -62 7q-64 0 -120 -40t-88.5 -105
t-32.5 -135q0 -49 20.5 -81.5t67.5 -32.5q57 0 112 66.5t73 165.5z" />
    <glyph glyph-name="atilde" unicode="&#xe3;" horiz-adv-x="552" 
d="M274 602h-50q5 47 26.5 76.5t54.5 29.5q5 0 10 -0.5t8.5 -1.5t8.5 -2.5t7.5 -2.5t7.5 -3.5t7 -4t7.5 -4.5t8.5 -5q30 -18 42 -18q14 0 20.5 9.5t11.5 35.5h50q-5 -34 -14.5 -56t-26 -34t-40.5 -12q-33 0 -63 21q-30 19 -45 19q-22 0 -31 -47zM451 0h-81q0 35 11 132h-2
q-76 -144 -199 -144q-67 0 -107 48t-40 122q0 67 24.5 132t68.5 117.5t112.5 84.5t149.5 32q77 0 137 -20l-51 -267q-26 -136 -23 -237zM397 292l30 155q-30 7 -62 7q-64 0 -120 -40t-88.5 -105t-32.5 -135q0 -49 20.5 -81.5t67.5 -32.5q57 0 112 66.5t73 165.5z" />
    <glyph glyph-name="adieresis" unicode="&#xe4;" horiz-adv-x="552" 
d="M261 604q-23 0 -37 14.5t-14 37.5q0 15 7 28t20 20.5t28 7.5q22 0 36 -15t14 -37q0 -23 -15.5 -39.5t-38.5 -16.5zM454 604q-14 0 -25.5 6.5t-18 18.5t-6.5 27q0 24 16 40t40 16q22 0 35 -15t13 -37q0 -23 -15 -39.5t-39 -16.5zM451 0h-81q0 35 11 132h-2
q-76 -144 -199 -144q-67 0 -107 48t-40 122q0 67 24.5 132t68.5 117.5t112.5 84.5t149.5 32q77 0 137 -20l-51 -267q-26 -136 -23 -237zM397 292l30 155q-30 7 -62 7q-64 0 -120 -40t-88.5 -105t-32.5 -135q0 -49 20.5 -81.5t67.5 -32.5q57 0 112 66.5t73 165.5z" />
    <glyph glyph-name="aring" unicode="&#xe5;" horiz-adv-x="552" 
d="M364 763q44 0 73 -26.5t29 -70.5q-1 -44 -33.5 -72t-76.5 -28q-43 0 -72 26t-30 67q0 46 31.5 75t78.5 29zM361 724q-15 0 -27.5 -8.5t-19.5 -22.5t-7 -32q0 -22 14.5 -38.5t36.5 -16.5q16 0 28.5 8t19.5 22.5t7 31.5q0 24 -14 40t-38 16zM451 0h-81q0 35 11 132h-2
q-76 -144 -199 -144q-67 0 -107 48t-40 122q0 67 24.5 132t68.5 117.5t112.5 84.5t149.5 32q77 0 137 -20l-51 -267q-26 -136 -23 -237zM397 292l30 155q-30 7 -62 7q-64 0 -120 -40t-88.5 -105t-32.5 -135q0 -49 20.5 -81.5t67.5 -32.5q57 0 112 66.5t73 165.5z" />
    <glyph glyph-name="ae" unicode="&#xe6;" horiz-adv-x="760" 
d="M667 94l12 -63q-69 -43 -168 -43q-62 0 -106.5 30t-61.5 84h-2q-31 -54 -82 -84t-112 -30q-66 0 -103.5 38t-37.5 94q0 100 93.5 153t240.5 48l3 19q5 18 0.5 38.5t-13.5 38t-31 29.5t-53 12q-68 0 -134 -43l-19 60q80 49 163 49q62 0 100 -28t47 -81h3q31 53 83.5 81
t110.5 28q70 0 108.5 -36t38.5 -87q0 -41 -18 -71t-49.5 -46.5t-74.5 -26t-93 -10.5t-105 0q-14 -72 5 -119q14 -33 44.5 -51t72.5 -18q31 0 60 6.5t42 12t36 16.5zM319 200l10 57q-38 2 -75 -2.5t-74.5 -17t-61 -40t-23.5 -66.5q0 -22 9.5 -38.5t26.5 -25.5t40 -9
q50 0 92.5 37.5t55.5 104.5zM660 394q0 17 -8.5 31t-26 23t-40.5 9q-62 0 -106.5 -46.5t-58.5 -99.5q27 0 52.5 -0.5t49.5 1.5t45 5t38 9.5t29.5 15t19 22t6.5 30.5z" />
    <glyph glyph-name="ccedilla" unicode="&#xe7;" horiz-adv-x="448" 
d="M373 90l8 -68q-59 -28 -112 -32l-33 -43q26 -6 41.5 -24.5t15.5 -44.5q0 -42 -34 -66.5t-80 -24.5q-45 0 -71 18l20 47q24 -16 55 -16q19 0 32.5 10t13.5 28q0 35 -70 41l54 75q-88 6 -132.5 61.5t-44.5 136.5q0 87 39.5 163.5t112.5 124t163 47.5q32 0 62 -7t44 -15
l-26 -70q-40 19 -87 19q-63 0 -114 -38t-77 -95t-26 -120q0 -62 33 -99t94.5 -37t118.5 29z" />
    <glyph glyph-name="egrave" unicode="&#xe8;" horiz-adv-x="479" 
d="M201 727h100l70 -152h-64zM387 95l12 -65q-69 -41 -169 -41q-97 0 -146 57.5t-49 148.5q0 58 21 116.5t56.5 106t89 77t113.5 29.5q70 0 110 -37t40 -94q0 -173 -341 -167q-4 -16 -1 -47t12 -51q30 -69 114 -69q70 0 138 36zM380 390q0 31 -21 48.5t-57 17.5
q-59 0 -104.5 -48.5t-62.5 -114.5q55 0 96.5 4t77 14.5t53.5 30t18 48.5z" />
    <glyph glyph-name="eacute" unicode="&#xe9;" horiz-adv-x="479" 
d="M372 727h105l-141 -152h-69zM387 95l12 -65q-69 -41 -169 -41q-97 0 -146 57.5t-49 148.5q0 58 21 116.5t56.5 106t89 77t113.5 29.5q70 0 110 -37t40 -94q0 -173 -341 -167q-4 -16 -1 -47t12 -51q30 -69 114 -69q70 0 138 36zM380 390q0 31 -21 48.5t-57 17.5
q-59 0 -104.5 -48.5t-62.5 -114.5q55 0 96.5 4t77 14.5t53.5 30t18 48.5z" />
    <glyph glyph-name="ecircumflex" unicode="&#xea;" horiz-adv-x="479" 
d="M314 727h62l73 -152h-66l-45 98h-2l-74 -98h-71zM387 95l12 -65q-69 -41 -169 -41q-97 0 -146 57.5t-49 148.5q0 58 21 116.5t56.5 106t89 77t113.5 29.5q70 0 110 -37t40 -94q0 -173 -341 -167q-4 -16 -1 -47t12 -51q30 -69 114 -69q70 0 138 36zM380 390q0 31 -21 48.5
t-57 17.5q-59 0 -104.5 -48.5t-62.5 -114.5q55 0 96.5 4t77 14.5t53.5 30t18 48.5z" />
    <glyph glyph-name="edieresis" unicode="&#xeb;" horiz-adv-x="479" 
d="M387 95l12 -65q-69 -41 -169 -41q-97 0 -146 57.5t-49 148.5q0 58 21 116.5t56.5 106t89 77t113.5 29.5q70 0 110 -37t40 -94q0 -173 -341 -167q-4 -16 -1 -47t12 -51q30 -69 114 -69q70 0 138 36zM380 390q0 31 -21 48.5t-57 17.5q-59 0 -104.5 -48.5t-62.5 -114.5
q55 0 96.5 4t77 14.5t53.5 30t18 48.5zM234 604q-22 0 -36 14.5t-14 37.5q0 15 7.5 28t20 20.5t27.5 7.5q23 0 36.5 -15t13.5 -37q0 -24 -15.5 -40t-39.5 -16zM428 604q-22 0 -36 14.5t-14 37.5t16 39.5t39 16.5t36.5 -15t13.5 -37q0 -24 -15.5 -40t-39.5 -16z" />
    <glyph glyph-name="igrave" unicode="&#xec;" horiz-adv-x="242" 
d="M53 727h100l69 -152h-62zM118 0h-88l98 513h88z" />
    <glyph glyph-name="iacute" unicode="&#xed;" horiz-adv-x="242" 
d="M236 727h106l-141 -152h-69zM118 0h-88l98 513h88z" />
    <glyph glyph-name="icircumflex" unicode="&#xee;" horiz-adv-x="242" 
d="M171 727h63l73 -152h-65l-46 98h-2l-74 -98h-71zM118 0h-88l98 513h88z" />
    <glyph glyph-name="idieresis" unicode="&#xef;" horiz-adv-x="242" 
d="M118 0h-88l98 513h88zM95 604q-14 0 -26 6.5t-18.5 18.5t-6.5 27q0 23 16 39.5t40 16.5q22 0 35.5 -15t13.5 -37q0 -23 -15 -39.5t-39 -16.5zM289 604q-11 0 -20.5 4t-16 11t-10.5 16.5t-4 20.5q0 23 16 39.5t39 16.5t36.5 -15t13.5 -37q0 -23 -15 -39.5t-39 -16.5z" />
    <glyph glyph-name="eth" unicode="&#xf0;" horiz-adv-x="546" 
d="M240 58q52 0 94 37.5t65 96t24 125.5q2 49 -17 78q-30 51 -97 51q-52 0 -95 -38t-65.5 -95t-22.5 -117t30 -99t84 -39zM174 537l-17 45l134 62q-34 35 -93 66l41 52q62 -29 128 -85l138 62l19 -44l-118 -54q109 -119 109 -285q0 -66 -15 -124.5t-41.5 -102.5t-61.5 -76
t-76.5 -48.5t-85.5 -16.5q-50 0 -89.5 17.5t-63 47t-35.5 65.5t-12 77q0 84 35.5 156.5t98 116.5t136.5 45q76 0 111 -51l4 2q-28 83 -91 145z" />
    <glyph glyph-name="ntilde" unicode="&#xf1;" horiz-adv-x="565" 
d="M267 602h-50q5 47 26.5 76.5t55.5 29.5q5 0 9.5 -0.5t8.5 -1.5t8.5 -2.5l7.5 -2.5t7.5 -3.5t7 -4t8 -4.5t7.5 -5q28 -18 43 -18q13 0 20 9.5t12 35.5h48q-6 -51 -25.5 -76.5t-54.5 -25.5q-33 0 -64 21q-27 19 -43 19q-14 0 -21 -11.5t-11 -35.5zM118 0h-88l69 363
q7 37 24 150h78l-12 -101h2q34 54 83.5 83t105.5 29q54 0 92.5 -34t38.5 -109q0 -33 -10 -82l-57 -299h-88l56 296q8 35 8 65q0 90 -81 90q-51 0 -104.5 -56t-70.5 -146z" />
    <glyph glyph-name="ograve" unicode="&#xf2;" horiz-adv-x="552" 
d="M208 727h99l70 -152h-62zM321 524q66 0 112.5 -31t67 -78.5t20.5 -104.5q0 -59 -20.5 -116.5t-56.5 -103t-90.5 -74t-116.5 -28.5q-93 0 -146.5 60.5t-53.5 150.5q0 84 35.5 158.5t101.5 120.5t147 46zM311 454q-52 0 -95.5 -38.5t-65.5 -96t-22 -117.5q0 -64 32.5 -104
t88.5 -40q50 0 92.5 38.5t66 96.5t23.5 118q0 25 -6 48.5t-19 45.5t-37.5 35.5t-57.5 13.5z" />
    <glyph glyph-name="oacute" unicode="&#xf3;" horiz-adv-x="552" 
d="M388 727h106l-141 -152h-69zM321 524q66 0 112.5 -31t67 -78.5t20.5 -104.5q0 -59 -20.5 -116.5t-56.5 -103t-90.5 -74t-116.5 -28.5q-93 0 -146.5 60.5t-53.5 150.5q0 84 35.5 158.5t101.5 120.5t147 46zM311 454q-52 0 -95.5 -38.5t-65.5 -96t-22 -117.5
q0 -64 32.5 -104t88.5 -40q50 0 92.5 38.5t66 96.5t23.5 118q0 25 -6 48.5t-19 45.5t-37.5 35.5t-57.5 13.5z" />
    <glyph glyph-name="ocircumflex" unicode="&#xf4;" horiz-adv-x="552" 
d="M332 727h63l72 -152h-66l-45 98h-2l-74 -98h-71zM321 524q66 0 112.5 -31t67 -78.5t20.5 -104.5q0 -59 -20.5 -116.5t-56.5 -103t-90.5 -74t-116.5 -28.5q-93 0 -146.5 60.5t-53.5 150.5q0 84 35.5 158.5t101.5 120.5t147 46zM311 454q-52 0 -95.5 -38.5t-65.5 -96
t-22 -117.5q0 -64 32.5 -104t88.5 -40q50 0 92.5 38.5t66 96.5t23.5 118q0 25 -6 48.5t-19 45.5t-37.5 35.5t-57.5 13.5z" />
    <glyph glyph-name="otilde" unicode="&#xf5;" horiz-adv-x="552" 
d="M252 602h-51q6 47 27.5 76.5t54.5 29.5q6 0 11 -0.5t10 -2t8.5 -2.5t9.5 -4t7.5 -4t9 -5.5t8.5 -5.5q30 -18 43 -18q9 0 14.5 4t9.5 13.5t8 27.5h49q-6 -51 -25.5 -76.5t-54.5 -25.5q-33 0 -64 21q-29 19 -44 19q-22 0 -31 -47zM321 524q66 0 112.5 -31t67 -78.5
t20.5 -104.5q0 -59 -20.5 -116.5t-56.5 -103t-90.5 -74t-116.5 -28.5q-93 0 -146.5 60.5t-53.5 150.5q0 84 35.5 158.5t101.5 120.5t147 46zM311 454q-52 0 -95.5 -38.5t-65.5 -96t-22 -117.5q0 -64 32.5 -104t88.5 -40q50 0 92.5 38.5t66 96.5t23.5 118q0 25 -6 48.5
t-19 45.5t-37.5 35.5t-57.5 13.5z" />
    <glyph glyph-name="odieresis" unicode="&#xf6;" horiz-adv-x="552" 
d="M253 604q-22 0 -36 14.5t-14 37.5q0 15 7.5 28t20 20.5t27.5 7.5q11 0 20.5 -4t16 -11t10 -16.5t3.5 -20.5q0 -23 -15.5 -39.5t-39.5 -16.5zM447 604q-22 0 -36 14.5t-14 37.5q0 15 7.5 28t20 20.5t27.5 7.5q23 0 36.5 -15t13.5 -37q0 -24 -15.5 -40t-39.5 -16zM321 524
q66 0 112.5 -31t67 -78.5t20.5 -104.5q0 -59 -20.5 -116.5t-56.5 -103t-90.5 -74t-116.5 -28.5q-93 0 -146.5 60.5t-53.5 150.5q0 84 35.5 158.5t101.5 120.5t147 46zM311 454q-52 0 -95.5 -38.5t-65.5 -96t-22 -117.5q0 -64 32.5 -104t88.5 -40q50 0 92.5 38.5t66 96.5
t23.5 118q0 25 -6 48.5t-19 45.5t-37.5 35.5t-57.5 13.5z" />
    <glyph glyph-name="divide" unicode="&#xf7;" horiz-adv-x="631" 
d="M324.5 410q-16.5 0 -30 7.5t-20.5 21t-6 29.5q0 26 15.5 43t40.5 17t40.5 -16.5t15.5 -43.5q0 -16 -6.5 -29.5t-19.5 -21t-29.5 -7.5zM589 252h-530v62h530v-62zM324 38q-25 0 -41 17t-15 41q0 18 7 31.5t20 21t29 7.5q25 0 40.5 -16.5t15.5 -43.5q0 -25 -15.5 -41.5
t-40.5 -16.5z" />
    <glyph glyph-name="oslash" unicode="&#xf8;" horiz-adv-x="554" 
d="M55 -40l-33 32l61 68q-46 56 -46 146q0 82 35.5 154.5t101 118t145.5 45.5q76 0 123 -38l58 65l35 -30l-59 -68q46 -58 46 -139q0 -66 -22.5 -126.5t-60 -104t-88.5 -69.5t-106 -26q-81 0 -131 42zM147 132l243 294q-27 31 -82 31q-52 0 -95 -39t-64.5 -93.5
t-22.5 -108.5q0 -49 19 -85zM413 380l-246 -291q32 -33 85 -33q46 0 88 35.5t67 91.5t25 115q0 45 -17 82h-2z" />
    <glyph glyph-name="ugrave" unicode="&#xf9;" horiz-adv-x="557" 
d="M207 727h99l70 -152h-62zM442 513h88l-69 -364q-14 -77 -23 -149h-80l14 96h-2q-35 -50 -83 -79t-98 -29q-27 0 -49.5 7.5t-42.5 23t-31.5 46t-11.5 72.5q0 35 10 85l55 291h88l-54 -286q-10 -43 -10 -76q0 -88 83 -88q50 0 100.5 53t65.5 134z" />
    <glyph glyph-name="uacute" unicode="&#xfa;" horiz-adv-x="557" 
d="M382 727h106l-141 -152h-69zM442 513h88l-69 -364q-14 -77 -23 -149h-80l14 96h-2q-35 -50 -83 -79t-98 -29q-27 0 -49.5 7.5t-42.5 23t-31.5 46t-11.5 72.5q0 35 10 85l55 291h88l-54 -286q-10 -43 -10 -76q0 -88 83 -88q50 0 100.5 53t65.5 134z" />
    <glyph glyph-name="ucircumflex" unicode="&#xfb;" horiz-adv-x="557" 
d="M334 727h63l73 -152h-65l-46 98h-2l-74 -98h-71zM442 513h88l-69 -364q-14 -77 -23 -149h-80l14 96h-2q-35 -50 -83 -79t-98 -29q-27 0 -49.5 7.5t-42.5 23t-31.5 46t-11.5 72.5q0 35 10 85l55 291h88l-54 -286q-10 -43 -10 -76q0 -88 83 -88q50 0 100.5 53t65.5 134z
" />
    <glyph glyph-name="udieresis" unicode="&#xfc;" horiz-adv-x="557" 
d="M251 604q-22 0 -36 14.5t-14 37.5t16 39.5t39 16.5q22 0 36 -15t14 -37q0 -23 -15.5 -39.5t-39.5 -16.5zM445 604q-22 0 -36 14.5t-14 37.5q0 15 7.5 28t20 20.5t27.5 7.5q23 0 36.5 -15t13.5 -37q0 -24 -15.5 -40t-39.5 -16zM442 513h88l-69 -364q-14 -77 -23 -149h-80
l14 96h-2q-35 -50 -83 -79t-98 -29q-27 0 -49.5 7.5t-42.5 23t-31.5 46t-11.5 72.5q0 35 10 85l55 291h88l-54 -286q-10 -43 -10 -76q0 -88 83 -88q50 0 100.5 53t65.5 134z" />
    <glyph glyph-name="yacute" unicode="&#xfd;" horiz-adv-x="467" 
d="M339 727h106l-141 -152h-69zM51 513h91l51 -277q15 -75 23 -134h2q31 74 55 125l131 286h93l-192 -390q-46 -93 -87 -157.5t-90 -111.5q-26 -27 -57 -47.5t-53 -29t-39 -12.5l-21 75q60 23 94 50q59 46 98 117q5 10 4 24z" />
    <glyph glyph-name="thorn" unicode="&#xfe;" horiz-adv-x="557" 
d="M-16 -210l182 962h87l-63 -331h2q32 48 77.5 75.5t98.5 27.5q77 0 117.5 -53.5t39.5 -132.5q0 -92 -40 -172.5t-109.5 -129t-149.5 -48.5q-69 0 -111 24h-3l-41 -222h-87zM154 229l-27 -144q35 -28 99 -28q55 0 104 40.5t76.5 103.5t27.5 130q0 22 -5 42.5t-15.5 38.5
t-30 28.5t-45.5 10.5q-56 0 -110 -59t-74 -163z" />
    <glyph glyph-name="ydieresis" unicode="&#xff;" horiz-adv-x="467" 
d="M200 604q-22 0 -36 14.5t-14 37.5t16 39.5t40 16.5q22 0 35.5 -15t13.5 -37q0 -24 -15.5 -40t-39.5 -16zM394 604q-22 0 -36 14.5t-14 37.5t16 39.5t39 16.5t36.5 -15t13.5 -37q0 -24 -15.5 -40t-39.5 -16zM51 513h91l51 -277q15 -75 23 -134h2q31 74 55 125l131 286h93
l-192 -390q-46 -93 -87 -157.5t-90 -111.5q-26 -27 -57 -47.5t-53 -29t-39 -12.5l-21 75q60 23 94 50q59 46 98 117q5 10 4 24z" />
    <glyph glyph-name="Amacron" unicode="&#x100;" horiz-adv-x="601" 
d="M288 835h245l-11 -58h-244zM425 226h-247l-113 -226h-94l370 714h104l98 -714h-90zM210 296h207l-27 206q-8 73 -13 131h-2q-3 -6 -24.5 -55t-33.5 -75z" />
    <glyph glyph-name="amacron" unicode="&#x101;" horiz-adv-x="552" 
d="M250 684h232l-11 -57h-232zM451 0h-81q0 35 11 132h-2q-76 -144 -199 -144q-67 0 -107 48t-40 122q0 67 24.5 132t68.5 117.5t112.5 84.5t149.5 32q77 0 137 -20l-51 -267q-26 -136 -23 -237zM397 292l30 155q-30 7 -62 7q-64 0 -120 -40t-88.5 -105t-32.5 -135
q0 -49 20.5 -81.5t67.5 -32.5q57 0 112 66.5t73 165.5z" />
    <glyph glyph-name="Abreve" unicode="&#x102;" horiz-adv-x="601" 
d="M425 226h-247l-113 -226h-94l370 714h104l98 -714h-90zM210 296h207l-27 206q-8 73 -13 131h-2q-3 -6 -24.5 -55t-33.5 -75zM288 885h55q0 -25 15.5 -41.5t49.5 -16.5q65 0 80 58h58q-9 -49 -45 -81t-96 -32q-66 0 -94.5 32t-22.5 81z" />
    <glyph glyph-name="abreve" unicode="&#x103;" horiz-adv-x="552" 
d="M243 724h53q-2 -32 13.5 -52.5t45.5 -20.5q34 0 55 21t29 52h55q-10 -59 -48.5 -94t-92.5 -35q-66 0 -92 37t-18 92zM451 0h-81q0 35 11 132h-2q-76 -144 -199 -144q-67 0 -107 48t-40 122q0 67 24.5 132t68.5 117.5t112.5 84.5t149.5 32q77 0 137 -20l-51 -267
q-26 -136 -23 -237zM397 292l30 155q-30 7 -62 7q-64 0 -120 -40t-88.5 -105t-32.5 -135q0 -49 20.5 -81.5t67.5 -32.5q57 0 112 66.5t73 165.5z" />
    <glyph glyph-name="Aogonek" unicode="&#x104;" horiz-adv-x="601" 
d="M445 714l98 -714h-35q-57 -65 -57 -113q0 -19 12 -31t31 -12q24 0 45 12l10 -48q-31 -26 -85 -26q-40 0 -62.5 22t-22.5 60q0 52 72 138q1 1 1 2l-27 222h-247l-113 -226h-94l370 714h104zM210 296h207l-27 206q-8 73 -13 131h-2q-3 -6 -24.5 -55t-33.5 -75z" />
    <glyph glyph-name="aogonek" unicode="&#x105;" horiz-adv-x="552" 
d="M525 504l-50 -267q-27 -139 -22 -237h-21q-61 -65 -61 -115q0 -19 11 -30t29 -11q25 0 47 12l10 -48q-30 -26 -86 -26q-39 0 -61.5 22t-22.5 60q0 52 69 136l4 4q1 50 11 128h-2q-76 -144 -199 -144q-67 0 -107 47.5t-40 122.5q0 67 24.5 132t68.5 117.5t112 84.5t149 32
q77 0 137 -20zM398 292l29 155q-30 7 -60 7q-65 0 -121 -40t-88 -105t-33 -135q0 -49 20.5 -81.5t67.5 -32.5q57 0 112 66.5t73 165.5z" />
    <glyph glyph-name="Cacute" unicode="&#x106;" horiz-adv-x="587" 
d="M488 881h116l-145 -125h-78zM515 95l11 -72q-75 -34 -185 -34q-135 0 -212 79.5t-77 216.5q0 102 39.5 193t112.5 151q113 97 270 97q54 0 95.5 -11t58.5 -24l-28 -71q-50 29 -141 29q-37 0 -73.5 -9t-70 -27t-61.5 -44q-50 -48 -79.5 -119.5t-29.5 -151.5q0 -50 12 -91
t37 -73.5t68 -50.5t100 -18q93 0 153 30z" />
    <glyph glyph-name="cacute" unicode="&#x107;" horiz-adv-x="448" 
d="M365 727h105l-141 -152h-68zM374 90l8 -70q-64 -31 -148 -31q-95 0 -146 56t-51 143t39.5 163.5t112 124t162.5 47.5q32 0 62 -7t45 -15l-26 -70q-40 19 -87 19q-63 0 -114 -38t-77 -95t-26 -119q0 -63 33 -100t94 -37q59 0 119 29z" />
    <glyph glyph-name="Ccircumflex" unicode="&#x108;" horiz-adv-x="587" 
d="M424 878h69l84 -125h-72l-52 76h-2l-76 -76h-78zM515 95l11 -72q-75 -34 -185 -34q-135 0 -212 79.5t-77 216.5q0 102 39.5 193t112.5 151q113 97 270 97q54 0 95.5 -11t58.5 -24l-28 -71q-50 29 -141 29q-37 0 -73.5 -9t-70 -27t-61.5 -44q-50 -48 -79.5 -119.5
t-29.5 -151.5q0 -50 12 -91t37 -73.5t68 -50.5t100 -18q93 0 153 30z" />
    <glyph glyph-name="ccircumflex" unicode="&#x109;" horiz-adv-x="448" 
d="M303 727h62l74 -152h-66l-46 98h-2l-74 -98h-71zM374 90l8 -70q-64 -31 -148 -31q-95 0 -146 56t-51 143t39.5 163.5t112 124t162.5 47.5q32 0 62 -7t45 -15l-26 -70q-40 19 -87 19q-63 0 -114 -38t-77 -95t-26 -119q0 -63 33 -100t94 -37q59 0 119 29z" />
    <glyph glyph-name="Cdotaccent" unicode="&#x10a;" horiz-adv-x="587" 
d="M457 765q-22 0 -36.5 14.5t-14.5 36.5q0 23 16.5 39.5t39.5 16.5q22 0 36 -15.5t14 -35.5q0 -23 -16 -39.5t-39 -16.5zM515 95l11 -72q-75 -34 -185 -34q-135 0 -212 79.5t-77 216.5q0 102 39.5 193t112.5 151q113 97 270 97q54 0 95.5 -11t58.5 -24l-28 -71
q-50 29 -141 29q-37 0 -73.5 -9t-70 -27t-61.5 -44q-50 -48 -79.5 -119.5t-29.5 -151.5q0 -50 12 -91t37 -73.5t68 -50.5t100 -18q93 0 153 30z" />
    <glyph glyph-name="cdotaccent" unicode="&#x10b;" horiz-adv-x="448" 
d="M338 604q-14 0 -25.5 6.5t-18 18.5t-6.5 27t7.5 28t20 20.5t27.5 7.5q23 0 36.5 -15t13.5 -37q0 -24 -15.5 -40t-39.5 -16zM374 90l8 -70q-64 -31 -148 -31q-95 0 -146 56t-51 143t39.5 163.5t112 124t162.5 47.5q32 0 62 -7t45 -15l-26 -70q-40 19 -87 19
q-63 0 -114 -38t-77 -95t-26 -119q0 -63 33 -100t94 -37q59 0 119 29z" />
    <glyph glyph-name="Ccaron" unicode="&#x10c;" horiz-adv-x="587" 
d="M472 756h-67l-85 125h73l50 -76h3l76 76h79zM515 95l11 -72q-75 -34 -185 -34q-135 0 -212 79.5t-77 216.5q0 102 39.5 193t112.5 151q113 97 270 97q54 0 95.5 -11t58.5 -24l-28 -71q-50 29 -141 29q-37 0 -73.5 -9t-70 -27t-61.5 -44q-50 -48 -79.5 -119.5
t-29.5 -151.5q0 -50 12 -91t37 -73.5t68 -50.5t100 -18q93 0 153 30z" />
    <glyph glyph-name="ccaron" unicode="&#x10d;" horiz-adv-x="448" 
d="M351 575h-64l-74 152h66l46 -98h2l77 98h70zM374 90l8 -70q-64 -31 -148 -31q-95 0 -146 56t-51 143t39.5 163.5t112 124t162.5 47.5q32 0 62 -7t45 -15l-26 -70q-40 19 -87 19q-63 0 -114 -38t-77 -95t-26 -119q0 -63 33 -100t94 -37q59 0 119 29z" />
    <glyph glyph-name="Dcaron" unicode="&#x10e;" horiz-adv-x="685" 
d="M427 752h-68l-85 125h73l50 -77h3l77 77h78zM34 4l133 700q84 15 177 15q181 0 263 -95q66 -70 68 -194q0 -98 -38 -188t-106 -148q-118 -98 -323 -98q-100 0 -174 8zM243 640l-107 -567q39 -5 92 -5q163 0 255 95q47 49 72.5 117.5t25.5 145.5q0 102 -57 161.5
t-184 59.5q-60 0 -97 -7z" />
    <glyph glyph-name="dcaron" unicode="&#x10f;" horiz-adv-x="565" 
d="M604 560l-27 40q61 33 61 93q0 31 -21 52l65 15q6 -4 11 -11t9 -15.5t6.5 -18.5t2.5 -20q0 -26 -9.5 -48.5t-25.5 -39t-34.5 -28.5t-37.5 -19zM487 752h88l-112 -590q-18 -87 -22 -162h-81l14 102h-2q-72 -114 -184 -114q-73 0 -113.5 52.5t-40.5 134.5q0 90 41 170.5
t114.5 129.5t161.5 49q53 0 91 -18zM393 253l35 179q-33 21 -85 21q-59 0 -110 -38t-79.5 -99.5t-28.5 -129.5q0 -33 8 -60t30.5 -46.5t57.5 -19.5q54 0 105 55t67 138z" />
    <glyph glyph-name="Dcroat" unicode="&#x110;" horiz-adv-x="692" 
d="M15 336l16 74h88l55 294q92 15 181 15q86 0 153 -24t105 -70q68 -68 68 -194q0 -97 -39 -187t-108 -148q-120 -99 -320 -99q-103 0 -173 9l63 330h-89zM382 410l-14 -74h-176l-50 -262q40 -5 96 -5q74 0 138.5 25t109.5 70q32 33 55 76t34.5 91t11.5 97q0 101 -56 160
t-182 59q-62 0 -98 -6l-44 -231h175z" />
    <glyph glyph-name="dcroat" unicode="&#x111;" horiz-adv-x="556" 
d="M393 253l35 179q-33 21 -85 21q-59 0 -110 -38t-79.5 -99.5t-28.5 -129.5q0 -33 8 -60t30.5 -46.5t57.5 -19.5q54 0 105 55t67 138zM261 642h206l20 110h88l-21 -110h85l-11 -56h-85l-80 -424q-18 -87 -22 -162h-81l14 102h-2q-72 -114 -184 -114q-73 0 -113.5 52.5
t-40.5 134.5q0 90 41 170.5t114.5 129.5t161.5 49q53 0 91 -18l15 80h-207z" />
    <glyph glyph-name="Emacron" unicode="&#x112;" horiz-adv-x="497" 
d="M245 835h244l-10 -58h-245zM459 410l-15 -74h-260l-48 -261h292l-15 -75h-380l135 714h365l-15 -75h-275l-44 -229h260z" />
    <glyph glyph-name="emacron" unicode="&#x113;" horiz-adv-x="479" 
d="M209 684h232l-11 -57h-232zM387 95l12 -65q-69 -41 -169 -41q-97 0 -146 57.5t-49 148.5q0 58 21 116.5t56.5 106t89 77t113.5 29.5q70 0 110 -37t40 -94q0 -173 -341 -167q-4 -16 -1 -47t12 -51q30 -69 114 -69q70 0 138 36zM380 390q0 31 -21 48.5t-57 17.5
q-59 0 -104.5 -48.5t-62.5 -114.5q55 0 96.5 4t77 14.5t53.5 30t18 48.5z" />
    <glyph glyph-name="Ebreve" unicode="&#x114;" horiz-adv-x="497" 
d="M240 879h56q0 -25 15 -41t49 -16q65 0 81 57h57q-9 -48 -44.5 -79.5t-96.5 -31.5q-65 0 -94 31.5t-23 79.5zM459 410l-15 -74h-260l-48 -261h292l-15 -75h-380l135 714h365l-15 -75h-275l-44 -229h260z" />
    <glyph glyph-name="ebreve" unicode="&#x115;" horiz-adv-x="479" 
d="M206 724h52q-1 -32 14 -52.5t45 -20.5q35 0 55.5 21t28.5 52h56q-10 -59 -48.5 -94t-92.5 -35q-66 0 -92 37t-18 92zM387 95l12 -65q-69 -41 -169 -41q-97 0 -146 57.5t-49 148.5q0 58 21 116.5t56.5 106t89 77t113.5 29.5q70 0 110 -37t40 -94q0 -173 -341 -167
q-4 -16 -1 -47t12 -51q30 -69 114 -69q70 0 138 36zM380 390q0 31 -21 48.5t-57 17.5q-59 0 -104.5 -48.5t-62.5 -114.5q55 0 96.5 4t77 14.5t53.5 30t18 48.5z" />
    <glyph glyph-name="Edotaccent" unicode="&#x116;" horiz-adv-x="497" 
d="M361 763q-21 0 -36 15t-15 37t16.5 39t38.5 17q9 0 17.5 -3t14.5 -8t10.5 -11.5t6.5 -14t2 -15.5q0 -23 -16 -39.5t-39 -16.5zM459 410l-15 -74h-260l-48 -261h292l-15 -75h-380l135 714h365l-15 -75h-275l-44 -229h260z" />
    <glyph glyph-name="edotaccent" unicode="&#x117;" horiz-adv-x="479" 
d="M326 604q-21 0 -35.5 14.5t-14.5 37.5q0 15 7.5 28t20 20.5t28.5 7.5q22 0 35.5 -15t13.5 -37q0 -24 -15 -40t-40 -16zM387 95l12 -65q-69 -41 -169 -41q-97 0 -146 57.5t-49 148.5q0 58 21 116.5t56.5 106t89 77t113.5 29.5q70 0 110 -37t40 -94q0 -173 -341 -167
q-4 -16 -1 -47t12 -51q30 -69 114 -69q70 0 138 36zM380 390q0 31 -21 48.5t-57 17.5q-59 0 -104.5 -48.5t-62.5 -114.5q55 0 96.5 4t77 14.5t53.5 30t18 48.5z" />
    <glyph glyph-name="Eogonek" unicode="&#x118;" horiz-adv-x="497" 
d="M33 0l135 714h365l-15 -75h-275l-44 -229h260l-15 -74h-260l-48 -261h292l-15 -75h-18q-39 -25 -65.5 -59t-26.5 -64q0 -16 9 -25t25 -9q25 0 46 11l14 -49q-38 -24 -87 -24q-25 0 -43.5 9.5t-28 26.5t-9.5 39q0 41 30 79.5t66 64.5h-292z" />
    <glyph glyph-name="eogonek" unicode="&#x119;" horiz-adv-x="479" 
d="M380 390q0 31 -21 48.5t-57 17.5q-59 0 -104.5 -48.5t-62.5 -114.5q55 0 96.5 4t77 14.5t53.5 30t18 48.5zM332 -137l10 -49q-41 -23 -86 -23q-38 0 -58.5 21.5t-20.5 56.5q0 33 21.5 65t54.5 55v1q-9 -1 -31 -1q-93 3 -140 60t-47 146q0 58 21 116.5t56.5 106t89 77
t113.5 29.5q70 0 110 -37t40 -94q0 -173 -341 -167q-4 -16 -1 -47t12 -51q30 -69 114 -69q70 0 138 36l12 -65q-5 -4 -38 -18q-111 -62 -111 -121q0 -18 9.5 -28t25.5 -10q25 0 47 10z" />
    <glyph glyph-name="Ecaron" unicode="&#x11a;" horiz-adv-x="497" 
d="M385 752h-69l-85 125h74l49 -77h4l75 77h79zM459 410l-15 -74h-260l-48 -261h292l-15 -75h-380l135 714h365l-15 -75h-275l-44 -229h260z" />
    <glyph glyph-name="ecaron" unicode="&#x11b;" horiz-adv-x="479" 
d="M338 575h-64l-73 152h66l46 -98h2l76 98h71zM387 95l12 -65q-69 -41 -169 -41q-97 0 -146 57.5t-49 148.5q0 58 21 116.5t56.5 106t89 77t113.5 29.5q70 0 110 -37t40 -94q0 -173 -341 -167q-4 -16 -1 -47t12 -51q30 -69 114 -69q70 0 138 36zM380 390q0 31 -21 48.5
t-57 17.5q-59 0 -104.5 -48.5t-62.5 -114.5q55 0 96.5 4t77 14.5t53.5 30t18 48.5z" />
    <glyph glyph-name="Gcircumflex" unicode="&#x11c;" horiz-adv-x="659" 
d="M446 877h68l85 -125h-73l-51 76h-3l-76 -76h-78zM623 373l-65 -342q-93 -38 -201 -38q-153 0 -233 89q-72 80 -72 208q0 92 36 178.5t104 146.5q121 106 293 106q59 0 103.5 -10t65.5 -22l-29 -75q-63 31 -150 31q-130 0 -222 -87q-49 -46 -78 -117t-29 -144
q0 -108 56.5 -168.5t171.5 -60.5q63 0 109 20l40 213h-145l14 72h231z" />
    <glyph glyph-name="gcircumflex" unicode="&#x11d;" horiz-adv-x="555" 
d="M335 727h63l72 -152h-65l-46 98h-2l-74 -98h-71zM10 -185l25 68q55 -33 136 -33q69 0 115.5 42t68.5 141l17 76h-3q-67 -109 -178 -109q-74 0 -115 52.5t-41 125.5q0 65 23 127.5t64.5 111t103.5 78t134 29.5q88 0 164 -36l-78 -423q-17 -86 -41 -141t-63 -88
q-65 -57 -179 -57q-98 0 -153 36zM395 266l33 170q-36 17 -85 17q-61 0 -112 -38.5t-77.5 -98t-27.5 -123.5q0 -23 4.5 -43.5t15 -39t31 -29.5t48.5 -11q55 0 105.5 59.5t64.5 136.5z" />
    <glyph glyph-name="Gbreve" unicode="&#x11e;" horiz-adv-x="659" 
d="M334 879h56q-1 -24 14 -40t49 -16q66 0 81 56h57q-8 -48 -43.5 -79.5t-97.5 -31.5q-64 0 -93 31.5t-23 79.5zM623 373l-65 -342q-93 -38 -201 -38q-153 0 -233 89q-72 80 -72 208q0 92 36 178.5t104 146.5q121 106 293 106q59 0 103.5 -10t65.5 -22l-29 -75
q-63 31 -150 31q-130 0 -222 -87q-49 -46 -78 -117t-29 -144q0 -108 56.5 -168.5t171.5 -60.5q63 0 109 20l40 213h-145l14 72h231z" />
    <glyph glyph-name="gbreve" unicode="&#x11f;" horiz-adv-x="555" 
d="M244 724h53q-2 -32 13 -52.5t45 -20.5q35 0 55.5 21t29.5 52h55q-10 -59 -48.5 -94t-92.5 -35q-66 0 -92 37t-18 92zM10 -185l25 68q55 -33 136 -33q69 0 115.5 42t68.5 141l17 76h-3q-67 -109 -178 -109q-74 0 -115 52.5t-41 125.5q0 65 23 127.5t64.5 111t103.5 78
t134 29.5q88 0 164 -36l-78 -423q-17 -86 -41 -141t-63 -88q-65 -57 -179 -57q-98 0 -153 36zM395 266l33 170q-36 17 -85 17q-61 0 -112 -38.5t-77.5 -98t-27.5 -123.5q0 -23 4.5 -43.5t15 -39t31 -29.5t48.5 -11q55 0 105.5 59.5t64.5 136.5z" />
    <glyph glyph-name="Gdotaccent" unicode="&#x120;" horiz-adv-x="659" 
d="M469 763q-21 0 -36 15t-15 37t17 39t40 17q14 0 26 -7.5t17.5 -19.5t5.5 -25q0 -23 -16 -39.5t-39 -16.5zM623 373l-65 -342q-93 -38 -201 -38q-153 0 -233 89q-72 80 -72 208q0 92 36 178.5t104 146.5q121 106 293 106q59 0 103.5 -10t65.5 -22l-29 -75q-63 31 -150 31
q-130 0 -222 -87q-49 -46 -78 -117t-29 -144q0 -108 56.5 -168.5t171.5 -60.5q63 0 109 20l40 213h-145l14 72h231z" />
    <glyph glyph-name="gdotaccent" unicode="&#x121;" horiz-adv-x="555" 
d="M357 604q-22 0 -36.5 14.5t-14.5 37.5t16.5 39.5t39.5 16.5t36.5 -15t13.5 -37q0 -24 -15.5 -40t-39.5 -16zM10 -185l25 68q55 -33 136 -33q69 0 115.5 42t68.5 141l17 76h-3q-67 -109 -178 -109q-74 0 -115 52.5t-41 125.5q0 65 23 127.5t64.5 111t103.5 78t134 29.5
q88 0 164 -36l-78 -423q-17 -86 -41 -141t-63 -88q-65 -57 -179 -57q-98 0 -153 36zM395 266l33 170q-36 17 -85 17q-61 0 -112 -38.5t-77.5 -98t-27.5 -123.5q0 -23 4.5 -43.5t15 -39t31 -29.5t48.5 -11q55 0 105.5 59.5t64.5 136.5z" />
    <glyph glyph-name="Gcommaaccent" unicode="&#x122;" horiz-adv-x="659" 
d="M204 -234l-11 44q23 4 43.5 13t35 26.5t14.5 40.5q0 30 -25 52l70 15q29 -26 29 -64q0 -57 -46.5 -89.5t-109.5 -37.5zM623 373l-65 -342q-93 -38 -201 -38q-153 0 -233 89q-72 80 -72 208q0 92 36 178.5t104 146.5q121 106 293 106q59 0 103.5 -10t65.5 -22l-29 -75
q-63 31 -150 31q-130 0 -222 -87q-49 -46 -78 -117t-29 -144q0 -108 56.5 -168.5t171.5 -60.5q63 0 109 20l40 213h-145l14 72h231z" />
    <glyph glyph-name="gcommaaccent" unicode="&#x123;" horiz-adv-x="555" 
d="M451 752l11 -43q-39 -7 -66 -26.5t-27 -53.5q0 -30 25 -52l-68 -14q-11 8 -20 25.5t-9 36.5q0 57 46.5 90t107.5 37zM10 -185l25 68q55 -33 136 -33q69 0 115.5 42t68.5 141l17 76h-3q-67 -109 -178 -109q-74 0 -115 52.5t-41 125.5q0 65 23 127.5t64.5 111t103.5 78
t134 29.5q88 0 164 -36l-78 -423q-17 -86 -41 -141t-63 -88q-65 -57 -179 -57q-98 0 -153 36zM395 266l33 170q-36 17 -85 17q-61 0 -112 -38.5t-77.5 -98t-27.5 -123.5q0 -23 4.5 -43.5t15 -39t31 -29.5t48.5 -11q55 0 105.5 59.5t64.5 136.5z" />
    <glyph glyph-name="Hcircumflex" unicode="&#x124;" horiz-adv-x="664" 
d="M415 877h69l85 -125h-72l-52 76h-2l-76 -76h-79zM169 714h88l-58 -301h329l57 301h89l-137 -714h-88l64 336h-329l-63 -336h-88z" />
    <glyph glyph-name="hcircumflex" unicode="&#x125;" horiz-adv-x="565" 
d="M206 904h67l85 -124h-72l-52 75h-2l-76 -75h-79zM118 0h-88l143 752h88l-64 -330h2q72 102 183 102q24 0 45.5 -7.5t40.5 -22.5t30.5 -43t11.5 -64q0 -45 -9 -87l-57 -300h-88l57 296q7 38 7 71q0 18 -4.5 33t-14 26.5t-25 18t-36.5 6.5q-53 0 -106 -55.5t-69 -139.5z
" />
    <glyph glyph-name="Hbar" unicode="&#x126;" horiz-adv-x="664" 
d="M546 508h-329l-21 -109h328zM64 568h77l28 146h88l-28 -146h328l28 146h89l-29 -146h69l-12 -60h-67l-98 -508h-88l61 322h-329l-60 -322h-88l97 508h-78z" />
    <glyph glyph-name="hbar" unicode="&#x127;" horiz-adv-x="565" 
d="M60 642h93l20 110h88l-22 -110h196l-10 -56h-196l-32 -164h2q72 102 183 102q24 0 45.5 -7.5t40.5 -22.5t30.5 -43t11.5 -64q0 -45 -9 -87l-57 -300h-88l57 296q7 38 7 71q0 18 -4.5 33t-14 26.5t-25 18t-36.5 6.5q-53 0 -106 -55.5t-69 -139.5l-47 -256h-88l112 586h-92
z" />
    <glyph glyph-name="Itilde" unicode="&#x128;" horiz-adv-x="246" 
d="M140 757h-50q8 48 31.5 77t55.5 29t63 -21q29 -19 47 -19q24 0 36 42h50q-18 -101 -89 -101q-31 0 -63 20q-3 2 -9.5 6t-9.5 5.5l-8 4t-9 3t-9 0.5q-24 0 -36 -46zM167 714h88l-135 -714h-88z" />
    <glyph glyph-name="itilde" unicode="&#x129;" horiz-adv-x="242" 
d="M115 602h-49q5 48 26 77t55 29q6 0 11 -0.5t10.5 -2t8.5 -2.5t9 -4l8 -4t9 -5.5t9 -5.5q28 -18 42 -18q13 0 20 9.5t12 35.5h50q-13 -102 -82 -102q-32 0 -63 21q-28 19 -44 19q-9 0 -15.5 -6t-10 -16t-6.5 -25zM118 0h-88l98 513h88z" />
    <glyph glyph-name="Imacron" unicode="&#x12a;" horiz-adv-x="246" 
d="M113 835h245l-11 -58h-244zM167 714h88l-135 -714h-88z" />
    <glyph glyph-name="imacron" unicode="&#x12b;" horiz-adv-x="242" 
d="M118 0h-88l98 513h88zM90 684h232l-11 -57h-232z" />
    <glyph glyph-name="Ibreve" unicode="&#x12c;" horiz-adv-x="246" 
d="M113 881h56q0 -24 15 -40.5t50 -16.5q64 0 80 57h58q-6 -31 -22 -55t-47 -40t-73 -16q-65 0 -94 31.5t-23 79.5zM167 714h88l-135 -714h-88z" />
    <glyph glyph-name="ibreve" unicode="&#x12d;" horiz-adv-x="242" 
d="M87 724h53q-2 -32 13.5 -52.5t44.5 -20.5q35 0 56 21t29 52h55q-10 -59 -48 -94t-93 -35q-66 0 -91.5 37t-18.5 92zM118 0h-88l98 513h88z" />
    <glyph glyph-name="Iogonek" unicode="&#x12e;" horiz-adv-x="246" 
d="M255 714l-135 -714h-31q-57 -67 -57 -113q0 -19 11.5 -31t30.5 -12q24 0 46 12l10 -48q-30 -26 -86 -26q-26 0 -45.5 10t-29 28.5t-9.5 43.5q0 52 69 136l4 4l134 710h88z" />
    <glyph glyph-name="iogonek" unicode="&#x12f;" horiz-adv-x="242" 
d="M195 605q-24 0 -39 16t-14 41q0 17 8 31.5t22 23t30.5 8.5t29 -7.5t19 -21t6.5 -30.5q0 -27 -18 -44t-44 -17zM216 513l-98 -513h-31q-56 -66 -56 -113q0 -20 11 -31.5t31 -11.5q24 0 46 12l9 -48q-30 -26 -86 -26q-39 0 -61 22t-22 60q0 53 72 140l97 509h88z" />
    <glyph glyph-name="Idotaccent" unicode="&#x130;" horiz-adv-x="246" 
d="M231 763q-21 0 -36 15t-15 37t16 39t39 17q15 0 27 -7.5t18 -19.5t6 -25q0 -23 -16 -39.5t-39 -16.5zM167 714h88l-135 -714h-88z" />
    <glyph glyph-name="dotlessi" unicode="&#x131;" horiz-adv-x="242" 
d="M118 0h-88l98 513h88z" />
    <glyph glyph-name="IJ" unicode="&#x132;" horiz-adv-x="632" 
d="M167 714h88l-135 -714h-88zM214 6l19 76q36 -15 90 -15q59 0 94 37t52 128l91 482h88l-93 -492q-24 -125 -79 -179.5t-156 -54.5q-30 0 -60.5 5.5t-45.5 12.5z" />
    <glyph glyph-name="ij" unicode="&#x133;" horiz-adv-x="483" 
d="M118 0h-88l98 513h88zM195 601q-11 0 -20.5 4t-16.5 11.5t-10.5 17.5t-3.5 22t4.5 23t12.5 19t19 12.5t22 4.5q24 0 38 -15.5t14 -39.5q-1 -26 -17.5 -42.5t-41.5 -16.5zM375 513h88l-98 -511q-23 -127 -65 -174q-45 -49 -118 -49q-38 0 -58 6l11 69q19 -4 41 -4
q36 0 60 29t38 104zM438 601q-24 0 -37.5 15t-13.5 40t17 42t41 17q23 0 37.5 -15.5t14.5 -39.5q-1 -17 -8.5 -30.5t-21 -21t-29.5 -7.5z" />
    <glyph glyph-name="Jcircumflex" unicode="&#x134;" horiz-adv-x="385" 
d="M351 877h69l84 -125h-72l-52 76h-2l-76 -76h-78zM-33 6l19 76q36 -15 90 -15q59 0 94 37t52 128l92 482h87l-93 -492q-23 -124 -78.5 -179t-156.5 -55q-68 0 -106 18z" />
    <glyph glyph-name="jcircumflex" unicode="&#x135;" horiz-adv-x="240" 
d="M132 513h88l-97 -511q-24 -129 -65 -174q-45 -49 -117 -49q-38 0 -59 6l11 69q19 -4 40 -4q37 0 61.5 29t38.5 104zM175 727h62l72 -152h-64l-46 100h-2l-74 -100h-70z" />
    <glyph glyph-name="Kcommaaccent" unicode="&#x136;" horiz-adv-x="545" 
d="M122 -234l-11 44q23 4 43 13t34.5 26.5t14.5 40.5q0 30 -25 52l70 15q30 -24 30 -64q0 -57 -46.5 -89.5t-109.5 -37.5zM33 0l135 714h88l-66 -347l5 1q14 17 39.5 45.5t30.5 33.5l251 267h110l-301 -307l185 -407h-97l-156 351l-85 -80l-52 -271h-87z" />
    <glyph glyph-name="kcommaaccent" unicode="&#x137;" horiz-adv-x="483" 
d="M90 -234l-11 44q24 4 44 13t34.5 26.5t14.5 40.5q0 30 -26 52l71 15q29 -25 29 -64q0 -57 -46.5 -89.5t-109.5 -37.5zM118 0h-87l142 752h88l-90 -471h2q7 8 24 26t23 26l181 180h109l-224 -211l154 -302h-98l-123 253l-64 -58z" />
    <glyph glyph-name="kgreenlandic" unicode="&#x138;" horiz-adv-x="483" 
d="M118 0h-87l97 513h87l-44 -232h2q7 8 24 26t23 26l181 180h109l-224 -211l154 -302h-98l-123 253l-64 -58z" />
    <glyph glyph-name="Lacute" unicode="&#x139;" horiz-adv-x="468" 
d="M298 877h115l-145 -125h-78zM33 0l135 714h88l-121 -638h288l-15 -76h-375z" />
    <glyph glyph-name="lacute" unicode="&#x13a;" horiz-adv-x="242" 
d="M276 911h116l-145 -124h-78zM118 0h-87l143 752h88z" />
    <glyph glyph-name="Lcommaaccent" unicode="&#x13b;" horiz-adv-x="468" 
d="M99 -234l-12 44q23 4 43 13t34.5 26.5t14.5 40.5q0 30 -25 52l71 15q28 -25 28 -64q0 -57 -46 -89.5t-108 -37.5zM33 0l135 714h88l-121 -638h288l-15 -76h-375z" />
    <glyph glyph-name="lcommaaccent" unicode="&#x13c;" horiz-adv-x="242" 
d="M-32 -234l-11 44q23 4 43 13t34.5 26.5t14.5 40.5q0 29 -25 52l70 15q30 -26 30 -64q0 -57 -46.5 -89.5t-109.5 -37.5zM118 0h-87l143 752h88z" />
    <glyph glyph-name="Lcaron" unicode="&#x13d;" horiz-adv-x="468" 
d="M304 529l-11 43q38 7 65.5 26.5t27.5 52.5t-26 52l71 15q4 -3 8 -7.5t8 -11t6.5 -13t4.5 -14.5t2 -16q0 -39 -24.5 -68t-58 -42.5t-73.5 -16.5zM33 0l135 714h88l-121 -638h288l-15 -76h-375z" />
    <glyph glyph-name="lcaron" unicode="&#x13e;" horiz-adv-x="250" 
d="M292 560l-27 39q59 32 59 94q0 32 -21 52l67 15q11 -9 19 -27.5t8 -37.5q0 -52 -32 -87t-73 -48zM118 0h-87l143 752h88z" />
    <glyph glyph-name="Ldot" unicode="&#x13f;" horiz-adv-x="469" 
d="M357 335q-21 0 -36 14.5t-15 36.5q0 23 16.5 39.5t39.5 16.5q22 0 36 -15.5t14 -35.5q0 -23 -16 -39.5t-39 -16.5zM33 0l135 714h88l-121 -638h288l-15 -76h-375z" />
    <glyph glyph-name="ldot" unicode="&#x140;" horiz-adv-x="280" 
d="M285 334q-21 0 -35 14t-14 37q0 22 16 38.5t37 16.5q15 0 26 -7t17 -18.5t6 -25.5q0 -24 -14.5 -39.5t-38.5 -15.5zM118 0h-87l143 752h88z" />
    <glyph glyph-name="Lslash" unicode="&#x141;" horiz-adv-x="474" 
d="M415 0h-376l54 286l-100 -66l14 72l100 65l69 357h87l-56 -294l150 98l-14 -73l-150 -98l-51 -271h287z" />
    <glyph glyph-name="lslash" unicode="&#x142;" horiz-adv-x="251" 
d="M123 0h-88l57 301l-79 -57l12 72l81 56l73 380h87l-59 -310l84 60l-13 -72l-85 -59z" />
    <glyph glyph-name="Nacute" unicode="&#x143;" horiz-adv-x="669" 
d="M477 877h115l-145 -125h-78zM115 0h-82l135 714h97l164 -405q39 -103 63 -199l2 1q6 94 29 224l72 379h84l-137 -714h-86l-163 404q-44 111 -66 205l-3 -1q-10 -87 -38 -235z" />
    <glyph glyph-name="nacute" unicode="&#x144;" horiz-adv-x="565" 
d="M404 727h104l-140 -152h-69zM118 0h-88l69 363q7 37 24 150h78l-12 -101h2q34 54 83.5 83t105.5 29q54 0 92.5 -34t38.5 -109q0 -33 -10 -82l-57 -299h-88l56 296q8 35 8 65q0 90 -81 90q-51 0 -104.5 -56t-70.5 -146z" />
    <glyph glyph-name="Ncommaaccent" unicode="&#x145;" horiz-adv-x="669" 
d="M193 -234l-12 44q24 4 43.5 13t34 26.5t14.5 40.5q0 30 -25 52l71 15q30 -26 30 -64q0 -57 -46.5 -89.5t-109.5 -37.5zM115 0h-82l135 714h97l164 -405q39 -103 63 -199l2 1q6 94 29 224l72 379h84l-137 -714h-86l-163 404q-44 111 -66 205l-3 -1q-10 -87 -38 -235z" />
    <glyph glyph-name="ncommaaccent" unicode="&#x146;" horiz-adv-x="565" 
d="M132 -234l-11 44q37 6 65 26t28 54q0 30 -25 52l69 15q30 -26 30 -64q0 -57 -46.5 -89.5t-109.5 -37.5zM118 0h-88l69 363q7 37 24 150h78l-12 -101h2q34 54 83.5 83t105.5 29q54 0 92.5 -34t38.5 -109q0 -33 -10 -82l-57 -299h-88l56 296q8 35 8 65q0 90 -81 90
q-51 0 -104.5 -56t-70.5 -146z" />
    <glyph glyph-name="Ncaron" unicode="&#x147;" horiz-adv-x="669" 
d="M465 752h-68l-84 125h73l49 -77h4l76 77h78zM115 0h-82l135 714h97l164 -405q39 -103 63 -199l2 1q6 94 29 224l72 379h84l-137 -714h-86l-163 404q-44 111 -66 205l-3 -1q-10 -87 -38 -235z" />
    <glyph glyph-name="ncaron" unicode="&#x148;" horiz-adv-x="565" 
d="M362 575h-63l-74 152h65l47 -98h2l76 98h70zM118 0h-88l69 363q7 37 24 150h78l-12 -101h2q34 54 83.5 83t105.5 29q54 0 92.5 -34t38.5 -109q0 -33 -10 -82l-57 -299h-88l56 296q8 35 8 65q0 90 -81 90q-51 0 -104.5 -56t-70.5 -146z" />
    <glyph glyph-name="napostrophe" unicode="&#x149;" horiz-adv-x="565" 
d="M82 576l-13 45q24 8 41 27.5t17 48.5q0 35 -24 55l66 15q8 -5 14.5 -15t11 -23t4.5 -27q0 -55 -36.5 -87.5t-80.5 -38.5zM118 0h-88l69 363q7 37 24 150h78l-12 -101h2q34 54 83.5 83t105.5 29q54 0 92.5 -34t38.5 -109q0 -33 -10 -82l-57 -299h-88l56 296q8 35 8 65
q0 90 -81 90q-51 0 -104.5 -56t-70.5 -146z" />
    <glyph glyph-name="Eng" unicode="&#x14a;" horiz-adv-x="669" 
d="M308 -208l-5 71q62 6 99 37.5t54 98.5l-163 405q-44 111 -66 205l-3 -1q-10 -87 -38 -235l-71 -373h-82l135 714h97l164 -405q39 -103 63 -199l2 1q6 105 29 224l72 379h84l-131 -685q-13 -68 -35.5 -114.5t-55 -72t-68 -37t-81.5 -13.5z" />
    <glyph glyph-name="eng" unicode="&#x14b;" horiz-adv-x="565" 
d="M220 -186l-8 73q31 4 53 13t43 27.5t36 51t24 79.5l44 238q8 35 8 65q0 90 -81 90q-51 0 -104.5 -56t-70.5 -146l-46 -249h-88l69 363q10 56 24 150h78l-12 -101h2q34 54 83.5 83t105.5 29q19 0 37 -4t35 -15t30 -26.5t21 -40.5t8 -57q0 -33 -10 -82l-47 -245
q-23 -123 -81.5 -177.5t-152.5 -62.5z" />
    <glyph glyph-name="Omacron" unicode="&#x14c;" horiz-adv-x="707" 
d="M340 835h245l-11 -58h-245zM427 726q69 0 122.5 -24t84.5 -65.5t46.5 -93t15.5 -110.5q0 -96 -34 -189.5t-95 -155.5q-102 -100 -245 -100q-67 0 -120 24t-85 65t-49 92.5t-17 109.5q0 63 16 127t47 122.5t74 100.5q45 45 108.5 71t130.5 26zM415 651q-93 0 -163 -72
q-50 -49 -79.5 -132t-29.5 -161q0 -45 10.5 -84t32.5 -71t60 -50t89 -18q92 0 163 70q48 49 77 133.5t29 162.5q0 33 -4.5 62.5t-17.5 59.5t-33 51.5t-54.5 35t-79.5 13.5z" />
    <glyph glyph-name="omacron" unicode="&#x14d;" horiz-adv-x="552" 
d="M247 684h232l-11 -57h-232zM321 524q66 0 112.5 -31t67 -78.5t20.5 -104.5q0 -59 -20.5 -116.5t-56.5 -103t-90.5 -74t-116.5 -28.5q-93 0 -146.5 60.5t-53.5 150.5q0 84 35.5 158.5t101.5 120.5t147 46zM311 454q-52 0 -95.5 -38.5t-65.5 -96t-22 -117.5
q0 -64 32.5 -104t88.5 -40q50 0 92.5 38.5t66 96.5t23.5 118q0 25 -6 48.5t-19 45.5t-37.5 35.5t-57.5 13.5z" />
    <glyph glyph-name="Obreve" unicode="&#x14e;" horiz-adv-x="707" 
d="M341 883h55q0 -15 5.5 -27.5t20.5 -21t39 -8.5q34 0 53.5 16t25.5 41h59q-9 -49 -45 -80.5t-97 -31.5q-65 0 -94 32t-22 80zM427 726q69 0 122.5 -24t84.5 -65.5t46.5 -93t15.5 -110.5q0 -96 -34 -189.5t-95 -155.5q-102 -100 -245 -100q-67 0 -120 24t-85 65t-49 92.5
t-17 109.5q0 63 16 127t47 122.5t74 100.5q45 45 108.5 71t130.5 26zM415 651q-93 0 -163 -72q-50 -49 -79.5 -132t-29.5 -161q0 -45 10.5 -84t32.5 -71t60 -50t89 -18q92 0 163 70q48 49 77 133.5t29 162.5q0 33 -4.5 62.5t-17.5 59.5t-33 51.5t-54.5 35t-79.5 13.5z" />
    <glyph glyph-name="obreve" unicode="&#x14f;" horiz-adv-x="552" 
d="M238 724h53q-1 -32 14 -52.5t45 -20.5q35 0 55.5 21t28.5 52h55q-9 -59 -47.5 -94t-92.5 -35q-66 0 -92 37t-19 92zM321 524q66 0 112.5 -31t67 -78.5t20.5 -104.5q0 -59 -20.5 -116.5t-56.5 -103t-90.5 -74t-116.5 -28.5q-93 0 -146.5 60.5t-53.5 150.5q0 84 35.5 158.5
t101.5 120.5t147 46zM311 454q-52 0 -95.5 -38.5t-65.5 -96t-22 -117.5q0 -64 32.5 -104t88.5 -40q50 0 92.5 38.5t66 96.5t23.5 118q0 25 -6 48.5t-19 45.5t-37.5 35.5t-57.5 13.5z" />
    <glyph glyph-name="Ohungarumlaut" unicode="&#x150;" horiz-adv-x="707" 
d="M421 877h100l-134 -120h-68zM577 877h101l-135 -120h-67zM427 726q69 0 122.5 -24t84.5 -65.5t46.5 -93t15.5 -110.5q0 -96 -34 -189.5t-95 -155.5q-102 -100 -245 -100q-67 0 -120 24t-85 65t-49 92.5t-17 109.5q0 63 16 127t47 122.5t74 100.5q45 45 108.5 71t130.5 26
zM415 651q-93 0 -163 -72q-50 -49 -79.5 -132t-29.5 -161q0 -45 10.5 -84t32.5 -71t60 -50t89 -18q92 0 163 70q48 49 77 133.5t29 162.5q0 33 -4.5 62.5t-17.5 59.5t-33 51.5t-54.5 35t-79.5 13.5z" />
    <glyph glyph-name="ohungarumlaut" unicode="&#x151;" horiz-adv-x="552" 
d="M306 727h93l-133 -153h-58zM460 727h93l-133 -153h-59zM321 524q66 0 112.5 -31t67 -78.5t20.5 -104.5q0 -59 -20.5 -116.5t-56.5 -103t-90.5 -74t-116.5 -28.5q-93 0 -146.5 60.5t-53.5 150.5q0 84 35.5 158.5t101.5 120.5t147 46zM311 454q-52 0 -95.5 -38.5t-65.5 -96
t-22 -117.5q0 -64 32.5 -104t88.5 -40q50 0 92.5 38.5t66 96.5t23.5 118q0 25 -6 48.5t-19 45.5t-37.5 35.5t-57.5 13.5z" />
    <glyph glyph-name="OE" unicode="&#x152;" horiz-adv-x="918" 
d="M846 75l-13 -75h-344q-14 0 -65 -4q-32 -3 -75 -3q-75 0 -133.5 23.5t-94 65.5t-54 95t-18.5 115q0 84 28 160t80.5 136.5t136.5 96.5t187 36q43 0 82 -3q59 -4 72 -4h317l-14 -75h-285l-43 -230h268l-15 -74h-268l-48 -260h299zM459 75l106 564q-34 8 -90 8
q-79 0 -143 -28.5t-105 -77.5t-63 -111t-22 -130q0 -50 12.5 -90.5t39 -73.5t72.5 -51t107 -18q48 0 86 8z" />
    <glyph glyph-name="oe" unicode="&#x153;" horiz-adv-x="847" 
d="M755 95l13 -64q-69 -43 -165 -43q-63 0 -108 30.5t-63 90.5h-2q-34 -59 -87.5 -90t-113.5 -31q-87 0 -140 60.5t-53 151.5q0 85 35 159t99 119.5t141 45.5q66 0 109.5 -33.5t59.5 -91.5h1q35 60 91 92.5t116 32.5q74 0 110 -38t36 -88q0 -35 -13 -62.5t-38.5 -45
t-55 -29.5t-70.5 -18t-78 -8.5t-83 -2.5q-12 -54 9 -104q32 -68 117 -68q70 0 133 35zM245 58q52 0 94.5 42t63.5 100t21 114q0 22 -3.5 41.5t-11.5 38t-21 32t-32.5 22t-45.5 8.5q-54 0 -97 -39t-64.5 -95.5t-21.5 -117.5q0 -65 32 -105.5t86 -40.5zM749 392q0 19 -9 33.5
t-27 23t-42 8.5q-59 0 -103 -47.5t-62 -109.5q42 0 72 1.5t64.5 7t56 15t36 27t14.5 41.5z" />
    <glyph glyph-name="Racute" unicode="&#x154;" horiz-adv-x="554" 
d="M399 877h116l-145 -125h-79zM33 0l134 703q73 16 156 16q114 0 171 -52q53 -46 53 -118q0 -75 -49 -131t-121 -76l-1 -2q71 -24 80 -144q6 -90 10.5 -133t11.5 -63h-91q-8 27 -17 173q-3 48 -16 79t-37 45t-60 14h-78l-58 -311h-88zM243 641l-50 -262h78q82 0 132.5 46.5
t50.5 112.5q0 28 -10 49.5t-28.5 34.5t-43.5 19.5t-55 6.5q-47 0 -74 -7z" />
    <glyph glyph-name="racute" unicode="&#x155;" horiz-adv-x="336" 
d="M296 727h105l-140 -152h-70zM118 0h-88l62 331q15 78 27 182h77q-8 -72 -14 -112h3q13 27 29 49t36 39t43.5 26t48.5 9q12 0 25 -2l-17 -87q-11 3 -24 3q-56 0 -102.5 -60.5t-63.5 -151.5z" />
    <glyph glyph-name="Rcommaaccent" unicode="&#x156;" horiz-adv-x="554" 
d="M126 -234l-11 44q24 4 44 13t34.5 26.5t14.5 40.5q0 30 -26 52l70 15q30 -24 30 -64q0 -57 -46.5 -89.5t-109.5 -37.5zM33 0l134 703q73 16 156 16q114 0 171 -52q53 -46 53 -118q0 -75 -49 -131t-121 -76l-1 -2q71 -24 80 -144q6 -90 10.5 -133t11.5 -63h-91
q-8 27 -17 173q-3 48 -16 79t-37 45t-60 14h-78l-58 -311h-88zM243 641l-50 -262h78q82 0 132.5 46.5t50.5 112.5q0 28 -10 49.5t-28.5 34.5t-43.5 19.5t-55 6.5q-47 0 -74 -7z" />
    <glyph glyph-name="rcommaaccent" unicode="&#x157;" horiz-adv-x="336" 
d="M1 -234l-12 44q38 6 66 26t28 54q0 30 -26 52l70 15q30 -26 30 -64q0 -57 -46.5 -89.5t-109.5 -37.5zM118 0h-88l62 331q15 78 27 182h77q-8 -72 -14 -112h3q13 27 29 49t36 39t43.5 26t48.5 9q12 0 25 -2l-17 -87q-11 3 -24 3q-56 0 -102.5 -60.5t-63.5 -151.5z" />
    <glyph glyph-name="Rcaron" unicode="&#x158;" horiz-adv-x="554" 
d="M375 752h-69l-85 125h73l50 -77h3l77 77h78zM33 0l134 703q73 16 156 16q114 0 171 -52q53 -46 53 -118q0 -75 -49 -131t-121 -76l-1 -2q71 -24 80 -144q6 -90 10.5 -133t11.5 -63h-91q-8 27 -17 173q-3 48 -16 79t-37 45t-60 14h-78l-58 -311h-88zM243 641l-50 -262h78
q82 0 132.5 46.5t50.5 112.5q0 28 -10 49.5t-28.5 34.5t-43.5 19.5t-55 6.5q-47 0 -74 -7z" />
    <glyph glyph-name="rcaron" unicode="&#x159;" horiz-adv-x="336" 
d="M273 575h-63l-73 152h65l46 -98h2l76 98h71zM118 0h-88l62 331q15 78 27 182h77q-8 -72 -14 -112h3q13 27 29 49t36 39t43.5 26t48.5 9q12 0 25 -2l-17 -87q-11 3 -24 3q-56 0 -102.5 -60.5t-63.5 -151.5z" />
    <glyph glyph-name="Sacute" unicode="&#x15a;" horiz-adv-x="493" 
d="M388 877h115l-145 -124h-78zM13 38l31 72q66 -45 152 -45q64 0 109.5 36t45.5 98q0 40 -25 71.5t-80 62.5q-142 76 -142 183q0 93 70 151.5t171 58.5q89 0 147 -38l-32 -71q-60 34 -124 32q-32 0 -59 -10t-44.5 -26.5t-27.5 -37t-10 -42.5q0 -29 12.5 -51.5t35.5 -41
t62 -40.5q34 -18 58.5 -37t42.5 -42t27 -51t9 -60q0 -96 -70 -158.5t-188 -62.5q-52 0 -100 14.5t-71 34.5z" />
    <glyph glyph-name="sacute" unicode="&#x15b;" horiz-adv-x="395" 
d="M306 727h106l-141 -152h-69zM10 24l24 65q52 -32 110 -32q43 0 70.5 24.5t27.5 59.5q0 30 -16 51t-55 43q-93 51 -93 130q0 68 52.5 113.5t133.5 45.5q69 0 107 -25l-25 -67q-39 24 -89 24q-39 0 -65 -22t-26 -56q0 -26 17 -45.5t53 -40.5q97 -55 97 -134t-56 -124
t-140 -45q-39 0 -74 10.5t-53 24.5z" />
    <glyph glyph-name="Scircumflex" unicode="&#x15c;" horiz-adv-x="493" 
d="M331 877h67l85 -125h-72l-52 76h-2l-76 -76h-79zM13 38l31 72q66 -45 152 -45q64 0 109.5 36t45.5 98q0 40 -25 71.5t-80 62.5q-142 76 -142 183q0 93 70 151.5t171 58.5q89 0 147 -38l-32 -71q-60 34 -124 32q-32 0 -59 -10t-44.5 -26.5t-27.5 -37t-10 -42.5
q0 -29 12.5 -51.5t35.5 -41t62 -40.5q34 -18 58.5 -37t42.5 -42t27 -51t9 -60q0 -96 -70 -158.5t-188 -62.5q-52 0 -100 14.5t-71 34.5z" />
    <glyph glyph-name="scircumflex" unicode="&#x15d;" horiz-adv-x="395" 
d="M251 727h64l73 -152h-67l-45 98h-2l-74 -98h-71zM10 24l24 65q52 -32 110 -32q43 0 70.5 24.5t27.5 59.5q0 30 -16 51t-55 43q-93 51 -93 130q0 68 52.5 113.5t133.5 45.5q69 0 107 -25l-25 -67q-39 24 -89 24q-39 0 -65 -22t-26 -56q0 -26 17 -45.5t53 -40.5
q97 -55 97 -134t-56 -124t-140 -45q-39 0 -74 10.5t-53 24.5z" />
    <glyph glyph-name="Scedilla" unicode="&#x15e;" horiz-adv-x="493" 
d="M492 688l-32 -71q-60 34 -124 32q-32 0 -59 -10t-44.5 -26.5t-27.5 -37t-10 -42.5q0 -29 12.5 -51.5t35.5 -41t62 -40.5q34 -18 58.5 -37t42.5 -42t27 -51t9 -60q0 -80 -50.5 -139t-139.5 -76l-35 -48q26 -6 41.5 -24.5t15.5 -44.5q0 -42 -34 -66.5t-81 -24.5
q-44 0 -70 18l20 47q22 -16 55 -16q12 0 22.5 4t17 13t6.5 21q0 35 -70 41l53 74h-15q-42 0 -91.5 14t-73.5 35l31 72q66 -45 152 -45q64 0 109.5 36t45.5 98q0 40 -25 71.5t-80 62.5q-142 76 -142 183q0 93 70 151.5t171 58.5q89 0 147 -38z" />
    <glyph glyph-name="scedilla" unicode="&#x15f;" horiz-adv-x="395" 
d="M371 499l-25 -67q-39 24 -89 24q-39 0 -65 -22t-26 -56q0 -26 17 -45.5t53 -40.5q97 -53 97 -134q0 -63 -37.5 -105.5t-99.5 -56.5l-36 -49q27 -6 42.5 -24.5t15.5 -43.5q0 -42 -34 -66.5t-82 -24.5q-44 0 -69 19l19 45q24 -16 55 -16q12 0 22.5 4t17.5 13t7 21
q0 35 -70 41l53 74h-6q-23 0 -47.5 5t-43.5 13t-30 17l24 65q52 -32 110 -32q43 0 70.5 24.5t27.5 59.5q0 30 -16 51t-55 43q-93 51 -93 130q0 68 52.5 113.5t133.5 45.5q69 0 107 -25z" />
    <glyph glyph-name="Scaron" unicode="&#x160;" horiz-adv-x="493" 
d="M370 752h-68l-85 125h73l50 -77h3l77 77h78zM13 38l31 72q66 -45 152 -45q64 0 109.5 36t45.5 98q0 40 -25 71.5t-80 62.5q-142 76 -142 183q0 93 70 151.5t171 58.5q89 0 147 -38l-32 -71q-60 34 -124 32q-32 0 -59 -10t-44.5 -26.5t-27.5 -37t-10 -42.5
q0 -29 12.5 -51.5t35.5 -41t62 -40.5q34 -18 58.5 -37t42.5 -42t27 -51t9 -60q0 -96 -70 -158.5t-188 -62.5q-52 0 -100 14.5t-71 34.5z" />
    <glyph glyph-name="scaron" unicode="&#x161;" horiz-adv-x="395" 
d="M290 575h-62l-74 152h65l46 -98h3l75 98h71zM10 24l24 65q52 -32 110 -32q43 0 70.5 24.5t27.5 59.5q0 30 -16 51t-55 43q-93 51 -93 130q0 68 52.5 113.5t133.5 45.5q69 0 107 -25l-25 -67q-39 24 -89 24q-39 0 -65 -22t-26 -56q0 -26 17 -45.5t53 -40.5q97 -55 97 -134
t-56 -124t-140 -45q-39 0 -74 10.5t-53 24.5z" />
    <glyph glyph-name="uni0162" unicode="&#x162;" horiz-adv-x="502" 
d="M84 714h506l-15 -76h-210l-120 -638h-14l-40 -53q26 -6 41.5 -24.5t15.5 -43.5q0 -21 -9.5 -39t-26 -29.5t-37 -17.5t-43.5 -6q-43 0 -69 18l20 46q23 -15 54 -15q19 0 32.5 10t13.5 28q0 33 -70 41l62 85h-18l121 638h-209z" />
    <glyph glyph-name="uni0163" unicode="&#x163;" horiz-adv-x="331" 
d="M219 444l-47 -249q-10 -52 -10 -83q0 -48 49 -48q24 0 41 3l-4 -69q-24 -10 -68 -10h-3l-31 -41q26 -6 41.5 -24.5t15.5 -43.5q0 -42 -33.5 -67t-81.5 -25q-44 0 -70 18l20 46q25 -15 55 -15q13 0 23.5 4t17 13t6.5 21q0 33 -70 41l58 83q-56 22 -56 90q0 43 11 96
l50 260h-74l14 69h73l22 115l92 22l-27 -137h123l-14 -69h-123z" />
    <glyph glyph-name="Tcaron" unicode="&#x164;" horiz-adv-x="502" 
d="M378 752h-69l-84 125h73l49 -77h4l76 77h78zM157 0l121 638h-209l15 76h506l-15 -76h-210l-120 -638h-88z" />
    <glyph glyph-name="tcaron" unicode="&#x165;" horiz-adv-x="331" 
d="M335 574l-18 41q54 24 54 76q0 33 -24 56l66 14q8 -6 15 -16t11.5 -23t4.5 -26q0 -51 -34 -82.5t-75 -39.5zM168 628l92 22l-27 -137h123l-14 -69h-123l-47 -249q-10 -52 -10 -83q0 -48 49 -48q24 0 41 3l-4 -69q-24 -10 -68 -10q-55 0 -81.5 28.5t-26.5 71.5t11 96
l50 260h-74l14 69h73z" />
    <glyph glyph-name="Tbar" unicode="&#x166;" horiz-adv-x="502" 
d="M575 638h-210l-44 -238h140l-13 -60h-139l-64 -340h-88l64 340h-133l13 60h132l45 238h-209l15 76h506z" />
    <glyph glyph-name="tbar" unicode="&#x167;" horiz-adv-x="331" 
d="M342 444h-123l-23 -123h97l-10 -55h-98l-13 -71q-10 -52 -10 -83q0 -48 49 -48q24 0 41 3l-4 -69q-24 -10 -68 -10q-55 0 -81.5 28.5t-26.5 71.5t11 96l16 82h-64l12 55h62l24 123h-74l14 69h73l22 115l92 22l-27 -137h123z" />
    <glyph glyph-name="Utilde" unicode="&#x168;" horiz-adv-x="657" 
d="M349 758h-50q8 48 31.5 77t55.5 29q31 0 63 -21q29 -19 47 -19q25 0 36 43h50q-18 -103 -88 -103q-29 0 -64 20q-2 1 -6 4t-6 4t-5.5 3t-5.5 3l-5 2.5t-5.5 2t-5.5 1t-6 0.5q-25 -1 -36 -46zM167 714h88l-80 -423q-9 -47 -9 -90q0 -67 36 -102t97 -35q157 0 199 225
l81 425h88l-81 -427q-58 -299 -299 -299q-94 0 -151.5 53t-57.5 158q0 49 10 99z" />
    <glyph glyph-name="utilde" unicode="&#x169;" horiz-adv-x="557" 
d="M273 602h-49q5 48 26 77t55 29q5 0 10 -0.5t8.5 -1.5t8.5 -2.5t7.5 -2.5t7.5 -3.5t7 -4t7.5 -4.5t8.5 -5q28 -18 42 -18t20.5 9.5t11.5 35.5h50q-13 -102 -82 -102q-31 0 -63 21q-28 19 -44 19q-7 0 -12 -3t-9 -10t-6.5 -15t-4.5 -19zM442 513h88l-69 -364
q-14 -77 -23 -149h-80l14 96h-2q-35 -50 -83 -79t-98 -29q-27 0 -49.5 7.5t-42.5 23t-31.5 46t-11.5 72.5q0 35 10 85l55 291h88l-54 -286q-10 -43 -10 -76q0 -88 83 -88q50 0 100.5 53t65.5 134z" />
    <glyph glyph-name="Umacron" unicode="&#x16a;" horiz-adv-x="657" 
d="M318 835h245l-11 -58h-245zM167 714h88l-80 -423q-9 -47 -9 -90q0 -67 36 -102t97 -35q157 0 199 225l81 425h88l-81 -427q-58 -299 -299 -299q-94 0 -151.5 53t-57.5 158q0 49 10 99z" />
    <glyph glyph-name="umacron" unicode="&#x16b;" horiz-adv-x="557" 
d="M240 684h232l-10 -57h-232zM442 513h88l-69 -364q-14 -77 -23 -149h-80l14 96h-2q-35 -50 -83 -79t-98 -29q-27 0 -49.5 7.5t-42.5 23t-31.5 46t-11.5 72.5q0 35 10 85l55 291h88l-54 -286q-10 -43 -10 -76q0 -88 83 -88q50 0 100.5 53t65.5 134z" />
    <glyph glyph-name="Ubreve" unicode="&#x16c;" horiz-adv-x="657" 
d="M317 879h56q-1 -25 14.5 -41t50.5 -16q64 0 79 57h58q-8 -49 -44 -80.5t-98 -31.5q-64 0 -93 31.5t-23 80.5zM167 714h88l-80 -423q-9 -47 -9 -90q0 -67 36 -102t97 -35q157 0 199 225l81 425h88l-81 -427q-58 -299 -299 -299q-94 0 -151.5 53t-57.5 158q0 49 10 99z" />
    <glyph glyph-name="ubreve" unicode="&#x16d;" horiz-adv-x="557" 
d="M228 724h53q-2 -32 13 -52.5t45 -20.5q35 0 55.5 21t29.5 52h55q-10 -58 -48.5 -93.5t-93.5 -35.5q-65 0 -91 37t-18 92zM442 513h88l-69 -364q-14 -77 -23 -149h-80l14 96h-2q-35 -50 -83 -79t-98 -29q-27 0 -49.5 7.5t-42.5 23t-31.5 46t-11.5 72.5q0 35 10 85l55 291
h88l-54 -286q-10 -43 -10 -76q0 -88 83 -88q50 0 100.5 53t65.5 134z" />
    <glyph glyph-name="Uring" unicode="&#x16e;" horiz-adv-x="657" 
d="M433 924q45 0 73 -25.5t28 -66.5q-1 -43 -32.5 -69.5t-76.5 -26.5q-29 0 -51.5 11t-35.5 31.5t-13 45.5q-1 43 30 71.5t78 28.5zM431 886q-23 0 -37.5 -17t-14.5 -43q0 -22 13.5 -37t34.5 -15q23 0 37.5 16.5t14.5 41.5q0 23 -13 38.5t-35 15.5zM167 714h88l-80 -423
q-9 -47 -9 -90q0 -67 36 -102t97 -35q157 0 199 225l81 425h88l-81 -427q-58 -299 -299 -299q-94 0 -151.5 53t-57.5 158q0 49 10 99z" />
    <glyph glyph-name="uring" unicode="&#x16f;" horiz-adv-x="557" 
d="M362 763q45 0 73.5 -26.5t28.5 -70.5t-32.5 -72t-76.5 -28q-43 0 -72 26t-30 67q-1 45 30.5 74.5t78.5 29.5zM360 724q-15 0 -27.5 -8.5t-19.5 -22.5t-7 -32q0 -14 6.5 -26.5t18 -20.5t26.5 -8q16 0 28 8t19 22.5t7 31.5q0 24 -14 40t-37 16zM442 513h88l-69 -364
q-14 -77 -23 -149h-80l14 96h-2q-35 -50 -83 -79t-98 -29q-27 0 -49.5 7.5t-42.5 23t-31.5 46t-11.5 72.5q0 35 10 85l55 291h88l-54 -286q-10 -43 -10 -76q0 -88 83 -88q50 0 100.5 53t65.5 134z" />
    <glyph glyph-name="Uhungarumlaut" unicode="&#x170;" horiz-adv-x="657" 
d="M398 877h101l-135 -120h-67zM555 877h101l-135 -120h-69zM167 714h88l-80 -423q-9 -47 -9 -90q0 -67 36 -102t97 -35q157 0 199 225l81 425h88l-81 -427q-58 -299 -299 -299q-94 0 -151.5 53t-57.5 158q0 49 10 99z" />
    <glyph glyph-name="uhungarumlaut" unicode="&#x171;" horiz-adv-x="557" 
d="M313 727h93l-134 -153h-59zM466 727h92l-132 -153h-59zM442 513h88l-69 -364q-14 -77 -23 -149h-80l14 96h-2q-35 -50 -83 -79t-98 -29q-27 0 -49.5 7.5t-42.5 23t-31.5 46t-11.5 72.5q0 35 10 85l55 291h88l-54 -286q-10 -43 -10 -76q0 -88 83 -88q50 0 100.5 53
t65.5 134z" />
    <glyph glyph-name="Uogonek" unicode="&#x172;" horiz-adv-x="657" 
d="M388 -132l9 -50q-30 -20 -80 -20q-40 0 -62.5 19.5t-22.5 55.5q0 55 68 117q-9 -1 -27 -1q-87 3 -141 56t-54 154q0 49 10 99l79 416h88l-80 -423q-9 -47 -9 -90q0 -67 36 -102t97 -35q157 0 199 225l81 425h88l-81 -427q-40 -209 -169 -270q-40 -22 -62 -41
q-49 -40 -49 -82q0 -17 10 -26t26 -9q24 0 46 9z" />
    <glyph glyph-name="uogonek" unicode="&#x173;" horiz-adv-x="557" 
d="M530 513l-69 -364q-14 -77 -23 -149h-24q-54 -63 -54 -109q0 -19 11.5 -30.5t29.5 -11.5q22 0 47 10l10 -47q-31 -26 -86 -26q-16 0 -29.5 3.5t-23.5 10.5t-17.5 17t-11 23t-3.5 28q0 53 70 136q2 3 3 4l12 88h-2q-35 -50 -83 -79t-98 -29q-27 0 -49.5 7.5t-42.5 23
t-31.5 46t-11.5 72.5q0 35 10 85l55 291h88l-54 -286q-10 -43 -10 -76q0 -88 83 -88q50 0 100.5 53t65.5 134l50 263h88z" />
    <glyph glyph-name="Wcircumflex" unicode="&#x174;" horiz-adv-x="878" 
d="M521 877h68l85 -125h-71l-53 76h-2l-77 -76h-78zM232 0h-94l-35 714h89l15 -428q2 -75 0 -186h2q34 93 74 181l197 433h94l15 -411q4 -117 2 -201h2q35 100 70 183l192 429h92l-332 -714h-92l-19 406q-3 95 2 205h-3q-42 -122 -72 -187z" />
    <glyph glyph-name="wcircumflex" unicode="&#x175;" horiz-adv-x="748" 
d="M428 727h64l72 -152h-66l-45 98h-2l-74 -98h-72zM65 513h86l18 -288q5 -62 3 -138h3q19 55 56 128l152 298h77l32 -293q9 -100 8 -133h2q20 58 49 129l139 297h89l-254 -513h-81l-34 279q-7 66 -7 135h-3q-50 -116 -59 -133l-147 -281h-82z" />
    <glyph glyph-name="Ycircumflex" unicode="&#x176;" horiz-adv-x="547" 
d="M341 877h68l85 -125h-71l-53 76h-2l-77 -76h-78zM257 0h-86l56 297l-138 417h94l69 -231q21 -73 30 -120h2q44 73 76 123l155 228h103l-304 -416z" />
    <glyph glyph-name="ycircumflex" unicode="&#x177;" horiz-adv-x="467" 
d="M280 727h62l73 -152h-65l-46 98h-2l-74 -98h-71zM51 513h91l51 -277q15 -75 23 -134h2q31 74 55 125l131 286h93l-192 -390q-46 -93 -87 -157.5t-90 -111.5q-26 -27 -57 -47.5t-53 -29t-39 -12.5l-21 75q60 23 94 50q59 46 98 117q5 10 4 24z" />
    <glyph glyph-name="Ydieresis" unicode="&#x178;" horiz-adv-x="547" 
d="M267 763q-14 0 -25.5 7t-18 19t-6.5 26q0 22 16 39t39 17q22 0 36 -15.5t14 -36.5q0 -23 -16 -39.5t-39 -16.5zM463 763q-21 0 -35.5 15t-14.5 37t16 39t39 17q22 0 35.5 -15.5t13.5 -36.5q0 -23 -15.5 -39.5t-38.5 -16.5zM257 0h-86l56 297l-138 417h94l69 -231
q21 -73 30 -120h2q44 73 76 123l155 228h103l-304 -416z" />
    <glyph glyph-name="Zacute" unicode="&#x179;" horiz-adv-x="554" 
d="M432 877h116l-145 -125h-78zM-21 0l10 54l485 582v3h-341l15 75h458l-11 -57l-481 -579l1 -3h375l-14 -75h-497z" />
    <glyph glyph-name="zacute" unicode="&#x17a;" horiz-adv-x="439" 
d="M338 727h105l-141 -152h-69zM-22 0l9 54l249 277q34 37 106 107l1 3h-262l13 72h369l-12 -59l-245 -273q-62 -67 -106 -106v-3h283l-13 -72h-392z" />
    <glyph glyph-name="Zdotaccent" unicode="&#x17b;" horiz-adv-x="554" 
d="M380 763q-20 0 -34.5 15t-14.5 37t16 39t39 17q22 0 35.5 -15.5t13.5 -36.5q0 -15 -7 -28t-19.5 -20.5t-28.5 -7.5zM-21 0l10 54l485 582v3h-341l15 75h458l-11 -57l-481 -579l1 -3h375l-14 -75h-497z" />
    <glyph glyph-name="zdotaccent" unicode="&#x17c;" horiz-adv-x="439" 
d="M294 604q-22 0 -36 14.5t-14 37.5t16.5 39.5t39.5 16.5q22 0 36 -15t14 -37q0 -16 -7 -28.5t-19.5 -20t-29.5 -7.5zM-22 0l9 54l249 277q34 37 106 107l1 3h-262l13 72h369l-12 -59l-245 -273q-62 -67 -106 -106v-3h283l-13 -72h-392z" />
    <glyph glyph-name="Zcaron" unicode="&#x17d;" horiz-adv-x="554" 
d="M414 752h-68l-84 125h73l50 -77h3l76 77h78zM-21 0l10 54l485 582v3h-341l15 75h458l-11 -57l-481 -579l1 -3h375l-14 -75h-497z" />
    <glyph glyph-name="zcaron" unicode="&#x17e;" horiz-adv-x="439" 
d="M319 575h-63l-74 152h66l45 -98h4l75 98h71zM-22 0l9 54l249 277q34 37 106 107l1 3h-262l13 72h369l-12 -59l-245 -273q-62 -67 -106 -106v-3h283l-13 -72h-392z" />
    <glyph glyph-name="florin" unicode="&#x192;" horiz-adv-x="521" 
d="M132 359l11 66h99l13 50q10 37 20.5 66t28.5 60.5t40 52t54.5 33.5t72.5 13q49 -1 71 -17l-24 -65q-27 12 -56 12q-32 0 -57 -21.5t-40 -55.5t-27 -84l-11 -44h123l-10 -66h-127l-56 -219q-13 -55 -29 -93.5t-39 -71t-56 -48.5t-76 -16q-50 0 -79 19l20 64q24 -13 60 -13
q41 0 68 42t49 131l52 205h-95z" />
    <glyph glyph-name="Ohorn" unicode="&#x1a0;" horiz-adv-x="707" 
d="M686 784l74 13q11 -25 11 -68q0 -56 -34 -87t-90 -25q49 -71 49 -184q0 -96 -34 -189.5t-95 -155.5q-102 -100 -245 -100q-67 0 -120 24t-85 65t-49 92.5t-17 109.5q0 63 16 127t47 122.5t74 100.5q45 45 108.5 71t130.5 26q64 0 123 -25q8 -3 23 -10t24 -11t21.5 -7
t23.5 -3q30 0 43 15t13 45q0 29 -12 54zM415 651q-93 0 -163 -72q-50 -49 -79.5 -132t-29.5 -161q0 -45 10.5 -84t32.5 -71t60 -50t89 -18q92 0 163 70q48 49 77 133.5t29 162.5q0 33 -4.5 62.5t-17.5 59.5t-33 51.5t-54.5 35t-79.5 13.5z" />
    <glyph glyph-name="ohorn" unicode="&#x1a1;" horiz-adv-x="555" 
d="M311 454q-52 0 -95.5 -38.5t-65.5 -96t-22 -117.5q0 -64 32.5 -104t88.5 -40q50 0 92.5 38.5t66 96.5t23.5 118q0 25 -6 48.5t-19 45.5t-37.5 35.5t-57.5 13.5zM523 587l70 12q9 -24 9 -60q0 -52 -29.5 -81t-80.5 -27q29 -48 29 -121q0 -59 -20.5 -116.5t-56.5 -103
t-90.5 -74t-116.5 -28.5q-93 0 -146.5 60.5t-53.5 150.5q0 84 35.5 158.5t101.5 120.5t147 46q47 0 88 -18q5 -2 16.5 -7.5t18.5 -8.5t18 -5.5t21 -2.5q50 0 50 53q0 25 -10 52z" />
    <glyph glyph-name="Uhorn" unicode="&#x1af;" horiz-adv-x="664" 
d="M167 714h88l-80 -423q-9 -47 -9 -90q0 -67 36 -102t97 -35q157 0 199 225l81 425h74q63 0 63 58q0 20 -7 46l68 11q7 -23 7 -50q0 -55 -31.5 -86t-95.5 -33l-71 -373q-58 -299 -299 -299q-94 0 -151.5 53t-57.5 158q0 49 10 99z" />
    <glyph glyph-name="uhorn" unicode="&#x1b0;" horiz-adv-x="566" 
d="M568 615l69 12q8 -27 8 -51q0 -53 -31.5 -85t-93.5 -32l-59 -310q-14 -77 -23 -149h-80l14 96h-2q-35 -50 -83 -79t-98 -29q-27 0 -49.5 7.5t-42.5 23t-31.5 46t-11.5 72.5q0 35 10 85l55 291h88l-54 -286q-10 -43 -10 -76q0 -88 83 -88q50 0 100.5 53t65.5 134l50 263
h72q63 0 63 57q0 21 -9 45z" />
    <glyph glyph-name="Aringacute" unicode="&#x1fa;" horiz-adv-x="601" 
d="M405 733q-42 0 -66.5 21.5t-24.5 55.5q0 37 29 62.5t73 25.5q40 0 64 -21t24 -57q0 -26 -13 -45.5t-35.5 -30.5t-50.5 -11zM407 772q23 0 36.5 13t13.5 33q0 17 -12.5 29.5t-33.5 12.5t-35 -14t-14 -32q0 -9 3.5 -17t9 -13.5t14 -8.5t18.5 -3zM488 1002h114l-139 -85h-81
zM425 226h-247l-113 -226h-94l370 714h104l98 -714h-90zM210 296h207l-27 206q-8 73 -13 131h-2q-3 -6 -24.5 -55t-33.5 -75z" />
    <glyph glyph-name="aringacute" unicode="&#x1fb;" horiz-adv-x="552" 
d="M475 894h108l-165 -119h-72zM385 750q43 0 72 -26.5t29 -69.5q-1 -45 -33 -73t-77 -28q-43 0 -72 26t-30 67q0 46 31.5 75t79.5 29zM381 711q-11 0 -21.5 -5t-17.5 -13t-11 -19.5t-4 -25.5q0 -22 14.5 -38.5t36.5 -16.5q24 0 39.5 18t15.5 45q0 23 -14 39t-38 16zM451 0
h-81q0 35 11 132h-2q-76 -144 -199 -144q-67 0 -107 48t-40 122q0 67 24.5 132t68.5 117.5t112.5 84.5t149.5 32q77 0 137 -20l-51 -267q-26 -136 -23 -237zM397 292l30 155q-30 7 -62 7q-64 0 -120 -40t-88.5 -105t-32.5 -135q0 -49 20.5 -81.5t67.5 -32.5q57 0 112 66.5
t73 165.5z" />
    <glyph glyph-name="AEacute" unicode="&#x1fc;" horiz-adv-x="818" 
d="M622 877h115l-145 -125h-78zM39 0h-93l475 714h402l-14 -75h-267l-24 -231h252l-14 -74h-244l-27 -259h272l-13 -75h-349l25 252h-213zM252 325h175l22 207q8 80 13 115h-4q-36 -63 -68 -112z" />
    <glyph glyph-name="aeacute" unicode="&#x1fd;" horiz-adv-x="760" 
d="M497 727h105l-141 -152h-69zM667 94l12 -63q-69 -43 -168 -43q-62 0 -106.5 30t-61.5 84h-2q-31 -54 -82 -84t-112 -30q-66 0 -103.5 38t-37.5 94q0 100 93.5 153t240.5 48l3 19q5 18 0.5 38.5t-13.5 38t-31 29.5t-53 12q-68 0 -134 -43l-19 60q80 49 163 49
q62 0 100 -28t47 -81h3q31 53 83.5 81t110.5 28q70 0 108.5 -36t38.5 -87q0 -41 -18 -71t-49.5 -46.5t-74.5 -26t-93 -10.5t-105 0q-14 -72 5 -119q14 -33 44.5 -51t72.5 -18q31 0 60 6.5t42 12t36 16.5zM319 200l10 57q-38 2 -75 -2.5t-74.5 -17t-61 -40t-23.5 -66.5
q0 -22 9.5 -38.5t26.5 -25.5t40 -9q50 0 92.5 37.5t55.5 104.5zM660 394q0 17 -8.5 31t-26 23t-40.5 9q-62 0 -106.5 -46.5t-58.5 -99.5q27 0 52.5 -0.5t49.5 1.5t45 5t38 9.5t29.5 15t19 22t6.5 30.5z" />
    <glyph glyph-name="Oslashacute" unicode="&#x1fe;" horiz-adv-x="706" 
d="M497 881h115l-145 -125h-77zM67 -46l-44 43l83 93q-55 79 -55 194q0 95 33.5 184.5t94.5 151.5q33 33 72.5 57t84 36.5t89.5 12.5q111 0 176 -61l80 90l48 -38l-85 -96q50 -73 52 -187q0 -94 -34 -186.5t-92 -154.5q-48 -49 -112.5 -77t-132.5 -28q-108 0 -175 61z
M168 164l380 438q-47 49 -133 49t-156 -65t-99 -165q-42 -142 6 -257h2zM579 542l-375 -431q48 -48 134 -48q79 0 146 60.5t99 158.5q13 41 18.5 83t1 89t-20.5 88h-3z" />
    <glyph glyph-name="oslashacute" unicode="&#x1ff;" horiz-adv-x="554" 
d="M389 727h105l-141 -152h-69zM55 -40l-33 32l61 68q-46 56 -46 146q0 82 35.5 154.5t101 118t145.5 45.5q76 0 123 -38l58 65l35 -30l-59 -68q46 -58 46 -139q0 -66 -22.5 -126.5t-60 -104t-88.5 -69.5t-106 -26q-81 0 -131 42zM147 132l243 294q-27 31 -82 31
q-52 0 -95 -39t-64.5 -93.5t-22.5 -108.5q0 -49 19 -85zM413 380l-246 -291q32 -33 85 -33q46 0 88 35.5t67 91.5t25 115q0 45 -17 82h-2z" />
    <glyph glyph-name="Scommaaccent" unicode="&#x218;" horiz-adv-x="493" 
d="M96 -234l-11 44q23 4 43 13t34.5 26.5t14.5 40.5q0 30 -26 52l71 15q29 -25 29 -64q0 -57 -46 -89.5t-109 -37.5zM13 38l31 72q66 -45 152 -45q64 0 109.5 36t45.5 98q0 40 -25 71.5t-80 62.5q-142 76 -142 183q0 93 70 151.5t171 58.5q89 0 147 -38l-32 -71
q-60 34 -124 32q-32 0 -59 -10t-44.5 -26.5t-27.5 -37t-10 -42.5q0 -29 12.5 -51.5t35.5 -41t62 -40.5q34 -18 58.5 -37t42.5 -42t27 -51t9 -60q0 -96 -70 -158.5t-188 -62.5q-52 0 -100 14.5t-71 34.5z" />
    <glyph glyph-name="scommaaccent" unicode="&#x219;" horiz-adv-x="395" 
d="M46 -234l-12 44q38 6 65.5 26t27.5 54q0 30 -25 52l70 15q29 -26 29 -64q0 -39 -24.5 -68t-58 -42.5t-72.5 -16.5zM10 24l24 65q52 -32 110 -32q43 0 70.5 24.5t27.5 59.5q0 30 -16 51t-55 43q-93 51 -93 130q0 68 52.5 113.5t133.5 45.5q69 0 107 -25l-25 -67
q-39 24 -89 24q-39 0 -65 -22t-26 -56q0 -26 17 -45.5t53 -40.5q97 -55 97 -134t-56 -124t-140 -45q-39 0 -74 10.5t-53 24.5z" />
    <glyph glyph-name="uni021A" unicode="&#x21a;" horiz-adv-x="502" 
d="M95 -234l-11 44q37 6 65 26t28 54q0 30 -26 52l70 15q30 -26 30 -64q0 -57 -46.5 -89.5t-109.5 -37.5zM157 0l121 638h-209l15 76h506l-15 -76h-210l-120 -638h-88z" />
    <glyph glyph-name="uni021B" unicode="&#x21b;" horiz-adv-x="331" 
d="M22 -234l-11 44q37 6 65 26t28 54q0 30 -26 52l70 15q30 -26 30 -64q0 -39 -24.5 -68t-58 -42.5t-73.5 -16.5zM168 628l92 22l-27 -137h123l-14 -69h-123l-47 -249q-10 -52 -10 -83q0 -48 49 -48q24 0 41 3l-4 -69q-24 -10 -68 -10q-55 0 -81.5 28.5t-26.5 71.5t11 96
l50 260h-74l14 69h73z" />
    <glyph glyph-name="uni021C" unicode="&#x21c;" horiz-adv-x="492" 
d="M-7 -121l-8 71q104 12 187 46t134 90.5t51 127.5q0 48 -35 82.5t-105 34.5q-36 0 -94 -17l-11 61q65 14 119 39t91 65.5t37 87.5q0 40 -30 63t-75 23q-55 0 -129 -38l-17 60q33 20 81 35.5t96 15.5q76 0 122.5 -40.5t46.5 -100.5q0 -65 -44.5 -114.5t-110.5 -78.5l-1 -3
q65 -12 109.5 -55t44.5 -113q0 -128 -124.5 -223.5t-334.5 -118.5z" />
    <glyph glyph-name="uni021D" unicode="&#x21d;" horiz-adv-x="416" 
d="M-58 -220l-8 70q21 2 44 5.5t58.5 11.5t67.5 18.5t65.5 28.5t58 39.5t40 52t15.5 65.5q0 43 -36 70.5t-96 26.5q-32 0 -86 -14l-11 61q228 56 228 164q0 32 -26 52t-71 20q-53 0 -122 -35l-17 58q84 50 172 50q68 0 111 -36.5t43 -88.5q0 -111 -138 -167v-3
q60 -10 100.5 -51t40.5 -100q0 -82 -58.5 -148.5t-156 -104t-218.5 -45.5z" />
    <glyph glyph-name="uni0232" unicode="&#x232;" horiz-adv-x="547" 
d="M257 0h-86l56 297l-138 417h94l69 -231q21 -73 30 -120h2q44 73 76 123l155 228h103l-304 -416zM263 835h244l-10 -58h-245z" />
    <glyph glyph-name="uni0233" unicode="&#x233;" horiz-adv-x="467" 
d="M51 513h91l51 -277q15 -75 23 -134h2q31 74 55 125l131 286h93l-192 -390q-46 -93 -87 -157.5t-90 -111.5q-26 -27 -57 -47.5t-53 -29t-39 -12.5l-21 75q60 23 94 50q59 46 98 117q5 10 4 24zM202 684h232l-10 -57h-232z" />
    <glyph glyph-name="circumflex" unicode="&#x2c6;" 
d="M260 727h62l73 -152h-66l-45 98h-2l-74 -98h-71z" />
    <glyph glyph-name="caron" unicode="&#x2c7;" 
d="M301 575h-64l-73 152h66l45 -98h3l76 98h71z" />
    <glyph glyph-name="uni02C9" unicode="&#x2c9;" 
d="M172 684h232l-11 -57h-232z" />
    <glyph glyph-name="breve" unicode="&#x2d8;" 
d="M168 724h53q-1 -32 14 -52.5t45 -20.5q35 0 55.5 21t28.5 52h56q-10 -59 -48.5 -94t-92.5 -35q-66 0 -92.5 37t-18.5 92z" />
    <glyph glyph-name="dotaccent" unicode="&#x2d9;" 
d="M279 604q-23 0 -37 14.5t-14 37.5q0 15 7 28t20 20.5t28 7.5q22 0 36.5 -15t14.5 -37q0 -12 -4.5 -22.5t-11.5 -18t-17.5 -11.5t-21.5 -4z" />
    <glyph glyph-name="ring" unicode="&#x2da;" horiz-adv-x="406" 
d="M287 763q44 0 73 -26.5t29 -70.5q-1 -44 -33.5 -72t-76.5 -28q-43 0 -72 26t-30 67q0 46 31.5 75t78.5 29zM284 724q-7 0 -13 -2t-11.5 -5t-10 -7t-8 -9.5t-6 -11.5t-4 -13t-1.5 -15q0 -14 6 -26.5t18 -20.5t27 -8q24 0 39.5 17.5t15.5 44.5q0 24 -14.5 40t-37.5 16z" />
    <glyph glyph-name="ogonek" unicode="&#x2db;" 
d="M146 2h65q-31 -25 -54.5 -58t-23.5 -61q0 -18 10.5 -28.5t29.5 -10.5q24 0 47 11l10 -48q-38 -25 -87 -25q-38 0 -60.5 21t-22.5 56q0 67 86 143z" />
    <glyph glyph-name="tilde" unicode="&#x2dc;" 
d="M197 602h-51q6 47 27.5 76.5t54.5 29.5q6 0 11 -0.5t10 -2t8.5 -2.5t9 -4t7.5 -4t9.5 -5.5t8.5 -5.5q30 -18 44 -18q13 0 19.5 9.5t12.5 35.5h48q-6 -51 -25.5 -76.5t-54.5 -25.5q-33 0 -64 21q-27 19 -43 19q-14 0 -21 -11.5t-11 -35.5z" />
    <glyph glyph-name="hungarumlaut" unicode="&#x2dd;" 
d="M256 727h94l-133 -153h-59zM410 727h93l-133 -153h-59z" />
    <glyph glyph-name="uni037E" unicode="&#x37e;" horiz-adv-x="226" 
d="M34 -124l-68 -6q65 138 93 251l104 2q-25 -58 -64.5 -133t-64.5 -114zM153 342q-28 0 -45 19t-17 47q0 31 19.5 52.5t49.5 21.5q28 0 45 -19t17 -48q0 -30 -20 -51.5t-49 -21.5z" />
    <glyph glyph-name="tonos" unicode="&#x384;" horiz-adv-x="381" 
d="M319 727h105l-141 -152h-69z" />
    <glyph glyph-name="dieresistonos" unicode="&#x385;" horiz-adv-x="366" 
d="M245 744h86l-102 -165h-52zM115 603q-20 0 -33 13t-13 33q0 22 15 37t36 15t33.5 -13.5t12.5 -33.5q0 -22 -14 -36.5t-37 -14.5zM373 603q-21 0 -34 13t-13 33q0 23 15 37.5t36 14.5q9 0 16 -2.5t12.5 -6.5t9.5 -10t6 -13t2 -15q0 -22 -14 -36.5t-36 -14.5z" />
    <glyph glyph-name="Alphatonos" unicode="&#x386;" horiz-adv-x="601" 
d="M109 714h83l-51 -164h-53zM425 226h-247l-113 -226h-94l370 714h104l98 -714h-90zM210 296h207l-27 206q-8 73 -13 131h-2q-3 -6 -24.5 -55t-33.5 -75z" />
    <glyph glyph-name="anoteleia" unicode="&#x387;" horiz-adv-x="226" 
d="M124 270q-27 0 -43.5 18t-16.5 46q0 30 19.5 51.5t48.5 21.5q28 0 45 -18.5t17 -46.5q0 -30 -19.5 -51t-50.5 -21z" />
    <glyph glyph-name="Epsilontonos" unicode="&#x388;" horiz-adv-x="520" 
d="M37 714h83l-51 -164h-53zM480 410l-15 -74h-258l-50 -261h292l-15 -75h-379l136 714h363l-15 -75h-275l-44 -229h260z" />
    <glyph glyph-name="Etatonos" unicode="&#x389;" horiz-adv-x="685" 
d="M36 714h83l-51 -164h-53zM190 714h88l-58 -301h329l57 301h88l-136 -714h-88l64 336h-328l-64 -336h-88z" />
    <glyph glyph-name="Iotatonos" unicode="&#x38a;" horiz-adv-x="269" 
d="M38 714h84l-51 -164h-53zM190 714h88l-137 -714h-87z" />
    <glyph glyph-name="Omicrontonos" unicode="&#x38c;" horiz-adv-x="723" 
d="M34 714h83l-51 -164h-53zM442 726q70 0 123 -24t84.5 -65.5t47 -93t15.5 -110.5q0 -96 -34.5 -189.5t-95.5 -155.5q-100 -100 -245 -100q-67 0 -119.5 24t-85 65t-49 92.5t-16.5 109.5q0 97 36 192t99 158q47 45 110 71t130 26zM430 651q-91 0 -163 -72
q-49 -50 -78.5 -132.5t-29.5 -160.5q0 -45 10.5 -84t32.5 -71t60 -50t89 -18q92 0 163 70q48 49 77 133.5t29 162.5q0 33 -4.5 62.5t-17.5 59.5t-33.5 51.5t-55 35t-79.5 13.5z" />
    <glyph glyph-name="Upsilontonos" unicode="&#x38e;" horiz-adv-x="637" 
d="M19 714h83l-51 -164h-53zM130 647l20 73q37 -3 79.5 -29t69.5 -66q76 -106 65 -263h5q27 81 73.5 149.5t97.5 114.5q42 38 88 63t80 31l8 -76q-31 -12 -67 -36.5t-77 -62t-81.5 -94t-69.5 -122.5q-33 -71 -47 -146l-34 -183h-88l35 184q13 75 12 144q-5 137 -53.5 219
t-115.5 100z" />
    <glyph glyph-name="Omegatonos" unicode="&#x38f;" horiz-adv-x="738" 
d="M38 714h83l-51 -164h-53zM265 0h-260l13 70h155v5q-42 41 -69.5 105t-27.5 137q0 113 48.5 206.5t133.5 148t188 54.5q127 0 202.5 -81t75.5 -201q0 -62 -17.5 -121t-47 -105.5t-63 -82t-70.5 -60.5v-5h145l-12 -70h-260l10 58q40 24 77.5 59.5t71 83t53.5 108.5t20 124
q0 59 -20 107.5t-65.5 81t-107.5 32.5q-49 0 -93 -20t-75.5 -54t-55 -77.5t-35.5 -92.5t-12 -97q0 -87 30.5 -153t77.5 -102z" />
    <glyph glyph-name="iotadieresistonos" unicode="&#x390;" horiz-adv-x="242" 
d="M198 734h85l-102 -163h-51zM69 593q-21 0 -33.5 13.5t-12.5 33.5q0 21 14.5 36t35.5 15q10 0 18.5 -4t14 -10t9 -14.5t3.5 -18.5q0 -22 -14 -36.5t-35 -14.5zM325 593q-20 0 -32.5 13.5t-12.5 33.5q0 21 14.5 36t35 15t33 -13.5t12.5 -33.5q0 -14 -6 -25.5t-17.5 -18.5
t-26.5 -7zM212 513l-73 -389q-5 -24 -3.5 -38.5t10.5 -20.5t28 -5l-18 -66q-13 -6 -36 -6q-76 0 -76 83q0 20 20 115l61 327h87z" />
    <glyph glyph-name="Alpha" unicode="&#x391;" horiz-adv-x="601" 
d="M425 226h-247l-113 -226h-94l370 714h104l98 -714h-90zM210 296h207l-27 206q-8 73 -13 131h-2q-3 -6 -24.5 -55t-33.5 -75z" />
    <glyph glyph-name="Beta" unicode="&#x392;" horiz-adv-x="548" 
d="M34 5l132 699q76 15 153 15q109 0 165 -49q51 -42 51 -112q0 -64 -45 -112.5t-109 -65.5v-2q52 -15 85 -56t33 -103q0 -51 -24 -93.5t-62 -71.5q-79 -58 -231 -58q-97 0 -148 9zM242 642l-44 -231h65q79 0 130.5 38t51.5 102q0 50 -34.5 74t-95.5 24q-49 0 -73 -7z
M184 344l-52 -273q30 -4 72 -4q55 -1 99 14t73.5 51.5t29.5 91.5q0 40 -21.5 68t-54.5 40t-75 12h-71z" />
    <glyph glyph-name="Gamma" unicode="&#x393;" horiz-adv-x="461" 
d="M168 714h368l-15 -75h-278l-121 -639h-89z" />
    <glyph glyph-name="uni0394" unicode="&#x394;" horiz-adv-x="631" 
d="M-24 0l9 52l366 662h102l122 -662l-8 -52h-591zM88 73h395l-72 390q-14 86 -25 167h-4q-13 -28 -74 -148z" />
    <glyph glyph-name="Epsilon" unicode="&#x395;" horiz-adv-x="497" 
d="M459 410l-15 -74h-260l-48 -261h292l-15 -75h-380l135 714h365l-15 -75h-275l-44 -229h260z" />
    <glyph glyph-name="Zeta" unicode="&#x396;" horiz-adv-x="554" 
d="M-21 0l10 54l485 582v3h-341l15 75h458l-11 -57l-481 -579l1 -3h375l-14 -75h-497z" />
    <glyph glyph-name="Eta" unicode="&#x397;" horiz-adv-x="664" 
d="M169 714h88l-58 -301h329l57 301h89l-137 -714h-88l64 336h-329l-63 -336h-88z" />
    <glyph glyph-name="Theta" unicode="&#x398;" horiz-adv-x="707" 
d="M323 -12q-67 0 -120 24t-85.5 65t-49.5 92.5t-17 109.5q0 93 34.5 185.5t94.5 156.5q47 49 112.5 77t134.5 28t122.5 -24t84.5 -65.5t46.5 -93t15.5 -110.5q0 -93 -32.5 -184.5t-90.5 -153.5q-100 -107 -250 -107zM334 63q55 0 106 33t86.5 85t56.5 118t21 130
q0 33 -4.5 62.5t-17.5 59.5t-33 51.5t-54.5 35t-79.5 13.5q-58 0 -110 -33.5t-86.5 -87t-55 -118t-20.5 -126.5q0 -45 10.5 -84t32.5 -71t59.5 -50t88.5 -18zM238 405h285l-11 -72h-285z" />
    <glyph glyph-name="Iota" unicode="&#x399;" horiz-adv-x="246" 
d="M167 714h88l-135 -714h-88z" />
    <glyph glyph-name="Kappa" unicode="&#x39a;" horiz-adv-x="545" 
d="M33 0l135 714h88l-66 -347l5 1q14 17 39.5 45.5t30.5 33.5l251 267h110l-301 -307l185 -407h-97l-156 351l-85 -80l-52 -271h-87z" />
    <glyph glyph-name="Lambda" unicode="&#x39b;" horiz-adv-x="602" 
d="M545 0h-92l-65 492q-6 52 -12 137h-2q-21 -53 -60 -136l-247 -493h-96l369 714h105z" />
    <glyph glyph-name="Mu" unicode="&#x39c;" horiz-adv-x="826" 
d="M716 0h-85l51 386q22 153 39 241h-4q-68 -150 -111 -230l-212 -393h-68l-53 385q-15 120 -22 238h-2q-7 -29 -26.5 -117t-28.5 -124l-98 -386h-82l185 714h112l57 -410q16 -130 17 -178h3q31 75 83 176l222 412h114z" />
    <glyph glyph-name="Nu" unicode="&#x39d;" horiz-adv-x="669" 
d="M115 0h-82l135 714h97l164 -405q39 -103 63 -199l2 1q6 94 29 224l72 379h84l-137 -714h-86l-163 404q-44 111 -66 205l-3 -1q-10 -87 -38 -235z" />
    <glyph glyph-name="Xi" unicode="&#x39e;" horiz-adv-x="565" 
d="M140 714h460l-13 -74h-460zM120 407h388l-12 -74h-389zM13 75h482l-13 -75h-482z" />
    <glyph glyph-name="Omicron" unicode="&#x39f;" horiz-adv-x="707" 
d="M427 726q69 0 122.5 -24t84.5 -65.5t46.5 -93t15.5 -110.5q0 -96 -34 -189.5t-95 -155.5q-102 -100 -245 -100q-67 0 -120 24t-85 65t-49 92.5t-17 109.5q0 63 16 127t47 122.5t74 100.5q45 45 108.5 71t130.5 26zM415 651q-93 0 -163 -72q-50 -49 -79.5 -132t-29.5 -161
q0 -45 10.5 -84t32.5 -71t60 -50t89 -18q92 0 163 70q48 49 77 133.5t29 162.5q0 33 -4.5 62.5t-17.5 59.5t-33 51.5t-54.5 35t-79.5 13.5z" />
    <glyph glyph-name="Pi" unicode="&#x3a0;" horiz-adv-x="657" 
d="M666 714l-134 -714h-88l121 640h-323l-121 -640h-88l135 714h498z" />
    <glyph glyph-name="Rho" unicode="&#x3a1;" horiz-adv-x="537" 
d="M33 0l134 703q67 16 155 16q117 0 175 -55q52 -48 52 -129q0 -57 -24 -106t-62 -80q-80 -68 -216 -68q-36 0 -73 5l-54 -286h-87zM240 640l-52 -280q35 -7 70 -7q90 0 146 49.5t56 126.5q0 60 -38.5 89t-103.5 29q-50 0 -78 -7z" />
    <glyph glyph-name="Sigma" unicode="&#x3a3;" horiz-adv-x="565" 
d="M501 0h-517l9 56l301 303l-180 292l10 63h469l-12 -74h-357l-2 -4l174 -282l-277 -275v-4h395z" />
    <glyph glyph-name="Tau" unicode="&#x3a4;" horiz-adv-x="502" 
d="M157 0l121 638h-209l15 76h506l-15 -76h-210l-120 -638h-88z" />
    <glyph glyph-name="Upsilon" unicode="&#x3a5;" horiz-adv-x="576" 
d="M70 647l20 73q37 -3 79.5 -29t68.5 -66q75 -104 66 -263h4q28 81 74 149.5t97 114.5q42 38 88.5 63t79.5 31l9 -76q-25 -9 -52.5 -26t-61 -44.5t-64.5 -62t-62.5 -82t-55.5 -100.5q-32 -71 -46 -146l-34 -183h-88l35 184q13 75 11 144q-5 137 -53.5 219t-114.5 100z" />
    <glyph glyph-name="Phi" unicode="&#x3a6;" horiz-adv-x="732" 
d="M271 -28l11 57q-99 10 -165 81.5t-66 186.5q0 60 15.5 115.5t42.5 97.5t62 76.5t75 56.5t81 33.5t80 11.5l10 54h84l-11 -54q99 -10 164.5 -81.5t65.5 -189.5q0 -69 -20.5 -131t-55 -108t-80 -79.5t-96.5 -51t-103 -18.5l-10 -57h-84zM296 96l98 525q-42 -1 -86 -24
t-81.5 -62.5t-61.5 -101.5t-24 -132q0 -57 20 -101.5t54.5 -71t80.5 -32.5zM477 621l-99 -526q108 6 180.5 99.5t72.5 222.5q0 59 -20.5 104t-55 70t-78.5 30z" />
    <glyph glyph-name="Chi" unicode="&#x3a7;" horiz-adv-x="551" 
d="M494 0h-94l-67 177q-30 73 -46 125h-2q-51 -78 -84 -123l-128 -179h-105l279 363l-135 351h94l67 -183q28 -78 36 -108h2q54 81 74 108l136 183h105l-275 -350z" />
    <glyph glyph-name="Psi" unicode="&#x3a8;" horiz-adv-x="685" 
d="M726 714l-41 -218q-24 -132 -102.5 -203t-205.5 -75l-40 -218h-85l41 218q-39 3 -74 15t-67 35t-51 63.5t-19 94.5q0 37 9 88l37 200h86l-37 -200q-9 -43 -9 -79q0 -69 33.5 -104t104.5 -42l80 425h83l-79 -425q84 4 137.5 55t74.5 166l38 204h86z" />
    <glyph glyph-name="uni03A9" unicode="&#x3a9;" horiz-adv-x="720" 
d="M247 0h-259l13 70h154v5q-27 26 -48 61.5t-35 83.5t-14 97q0 84 28.5 160t77.5 130.5t118 86.5t146 32q127 0 203 -81t76 -201q0 -62 -17.5 -121t-47 -105.5t-63 -81.5t-69.5 -61v-5h144l-13 -70h-260l10 58q40 24 78 59.5t71 83t53 108.5t20 124q0 59 -20 107.5
t-65.5 81t-107.5 32.5q-61 0 -113 -30.5t-85.5 -79.5t-52.5 -109.5t-19 -121.5q0 -87 30 -153t77 -102z" />
    <glyph glyph-name="Iotadieresis" unicode="&#x3aa;" horiz-adv-x="246" 
d="M122 753q-22 0 -36 15t-14 37q0 23 15.5 39t38.5 16q22 0 36 -14.5t14 -36.5q0 -24 -15.5 -40t-38.5 -16zM317 753q-22 0 -36.5 15t-14.5 37q0 23 16 39t39 16q15 0 26.5 -7t17.5 -18.5t6 -25.5q0 -24 -15.5 -40t-38.5 -16zM167 714h88l-135 -714h-88z" />
    <glyph glyph-name="Upsilondieresis" unicode="&#x3ab;" horiz-adv-x="576" 
d="M275 745q-21 0 -35 14.5t-14 37.5t16 39t39 16q22 0 36 -15t14 -36q0 -24 -15.5 -40t-40.5 -16zM470 745q-21 0 -35 14.5t-14 37.5t16 39t39 16q22 0 35.5 -15t13.5 -36q0 -16 -7 -29t-19.5 -20t-28.5 -7zM70 647l20 73q37 -3 79.5 -29t68.5 -66q75 -104 66 -263h4
q28 81 74 149.5t97 114.5q42 38 88.5 63t79.5 31l9 -76q-25 -9 -52.5 -26t-61 -44.5t-64.5 -62t-62.5 -82t-55.5 -100.5q-32 -71 -46 -146l-34 -183h-88l35 184q13 75 11 144q-5 137 -53.5 219t-114.5 100z" />
    <glyph glyph-name="alphatonos" unicode="&#x3ac;" horiz-adv-x="573" 
d="M385 727h104l-140 -152h-69zM391 95h-3q-32 -49 -79.5 -78t-106.5 -29q-75 0 -121 51.5t-46 136.5q0 72 23 137.5t61 111t87 72.5t99 27q59 0 94 -28t46 -73h4q13 50 27 90h74q-9 -29 -30 -121q-31 -140 -48 -232q-10 -54 -3 -77.5t35 -23.5l-19 -67q-11 -4 -27 -4
q-34 0 -52.5 26.5t-14.5 80.5zM126 189q0 -38 12 -67t37 -46t59 -17q48 0 90.5 41.5t64.5 97.5q11 29 19 71q6 40 6 62q0 51 -28 87t-79 36q-44 0 -86 -36t-68.5 -98t-26.5 -131z" />
    <glyph glyph-name="epsilontonos" unicode="&#x3ad;" horiz-adv-x="430" 
d="M319 727h105l-141 -152h-69zM340 240h-67q-67 0 -113.5 -26.5t-46.5 -76.5q0 -37 33.5 -58t86.5 -21q40 0 82 11t66 24l9 -64q-29 -18 -80 -29.5t-99 -11.5q-83 0 -137 33.5t-54 101.5q0 59 42.5 101t100.5 50v6q-28 6 -47.5 20.5t-29 33.5t-9.5 42q0 59 59 103.5
t156 44.5q45 0 82.5 -10t55.5 -27l-23 -57q-44 28 -116 28q-56 0 -90.5 -24t-34.5 -60q0 -35 35 -52.5t96 -18.5h54z" />
    <glyph glyph-name="etatonos" unicode="&#x3ae;" horiz-adv-x="565" 
d="M393 727h105l-141 -152h-69zM119 0h-89l69 363q19 107 13 150h79q7 -34 -2 -101h2q34 54 83.5 83t105.5 29q19 0 37 -4t35 -15t30 -26.5t21 -40.5t8 -57q0 -35 -10 -82l-59 -315q-28 -147 -25 -194h-81q-12 29 17 191l59 315q8 44 8 65q0 90 -81 90q-51 0 -104.5 -56
t-70.5 -146z" />
    <glyph glyph-name="iotatonos" unicode="&#x3af;" horiz-adv-x="242" 
d="M244 727h105l-141 -152h-69zM212 513l-73 -389q-5 -24 -3.5 -38.5t10.5 -20.5t28 -5l-18 -66q-13 -6 -36 -6q-76 0 -76 83q0 20 20 115l61 327h87z" />
    <glyph glyph-name="upsilondieresistonos" unicode="&#x3b0;" horiz-adv-x="530" 
d="M314 734h84l-101 -163h-51zM183 593q-19 0 -32 13.5t-13 33.5q0 21 14.5 36t35 15t33 -13.5t12.5 -33.5q0 -22 -14 -36.5t-36 -14.5zM441 593q-20 0 -33 13.5t-13 33.5q0 21 14.5 36t35.5 15q20 0 32.5 -13.5t12.5 -33.5q0 -22 -13.5 -36.5t-35.5 -14.5zM404 513h83
q13 -36 13 -94.5t-10 -117t-32 -115.5t-54 -100.5t-80 -70.5t-106 -27q-73 0 -120 43.5t-47 118.5q0 19 8 64l24 124q25 137 21 175h82q13 -23 -2 -96l-36 -196q-7 -47 -7 -57q0 -49 27.5 -76t64.5 -27q53 0 94.5 51.5t63 134t21.5 179.5q0 59 -8 87z" />
    <glyph glyph-name="alpha" unicode="&#x3b1;" horiz-adv-x="573" 
d="M391 95h-3q-32 -49 -79.5 -78t-106.5 -29q-75 0 -121 51.5t-46 136.5q0 72 23 137.5t61 111t87 72.5t99 27q59 0 94 -28t46 -73h4q13 50 27 90h74q-9 -29 -30 -121q-31 -140 -48 -232q-10 -54 -3 -77.5t35 -23.5l-19 -67q-11 -4 -27 -4q-34 0 -52.5 26.5t-14.5 80.5z
M126 189q0 -38 12 -67t37 -46t59 -17q48 0 90.5 41.5t64.5 97.5q11 29 19 71q6 40 6 62q0 51 -28 87t-79 36q-44 0 -86 -36t-68.5 -98t-26.5 -131z" />
    <glyph glyph-name="beta" unicode="&#x3b2;" horiz-adv-x="564" 
d="M89 -210h-83q-10 45 17 184l91 488q34 178 115 248q62 54 144 54q69 0 113 -44t44 -112q0 -45 -17 -85.5t-44 -68t-60 -42.5l-1 -5q51 -12 86 -59.5t35 -114.5q0 -47 -14.5 -87t-38.5 -68.5t-55 -49t-65 -30.5t-67 -10q-105 0 -162 70l-2 -1l-14 -75q-25 -146 -22 -192z
M273 367l11 61q3 0 10 0.5t10 0.5q64 5 102.5 51.5t38.5 111.5q0 46 -23 73.5t-62 27.5q-117 0 -158 -221l-60 -328q15 -34 52 -60.5t87 -26.5q62 0 110 48t48 124q0 60 -38.5 97.5t-99.5 40.5h-28z" />
    <glyph glyph-name="gamma" unicode="&#x3b3;" horiz-adv-x="465" 
d="M178 -210h-87q1 6 7 35.5t8 40.5l7 38.5t7 44t4.5 40t3.5 44.5t0 40q-3 102 -35.5 230.5t-67.5 209.5h98q29 -64 54.5 -178.5t26.5 -222.5h5q144 204 173 363q5 25 5 38h87q1 -16 -4 -43q-17 -94 -81.5 -209.5t-161.5 -228.5q-10 -12 -13 -29q-10 -65 -36 -213z" />
    <glyph glyph-name="delta" unicode="&#x3b4;" horiz-adv-x="552" 
d="M520 688l-36 -53q-23 25 -59 43.5t-73 18.5q-32 0 -49 -14t-17 -35q0 -13 9.5 -28.5t18.5 -24t33 -31.5l73 -68q99 -96 99 -213q0 -73 -33 -140t-96.5 -111t-143.5 -44q-92 0 -152 60t-60 159q0 58 20 109.5t54 90.5t74.5 67t86.5 47v4l-20 23q-16 16 -25 27.5
t-18.5 31.5t-9.5 40q0 48 41 82.5t107 34.5q110 0 176 -76zM359 433l-44 44q-29 -13 -55 -30t-51 -42t-43.5 -53t-29.5 -64.5t-11 -75.5q0 -72 38.5 -114.5t93.5 -42.5q70 0 121 65t51 152q0 23 -3.5 43t-11 40t-21.5 39.5t-34 38.5z" />
    <glyph glyph-name="epsilon" unicode="&#x3b5;" horiz-adv-x="430" 
d="M340 240h-67q-67 0 -113.5 -26.5t-46.5 -76.5q0 -37 33.5 -58t86.5 -21q40 0 82 11t66 24l9 -64q-29 -18 -80 -29.5t-99 -11.5q-83 0 -137 33.5t-54 101.5q0 59 42.5 101t100.5 50v6q-28 6 -47.5 20.5t-29 33.5t-9.5 42q0 59 59 103.5t156 44.5q45 0 82.5 -10t55.5 -27
l-23 -57q-44 28 -116 28q-56 0 -90.5 -24t-34.5 -60q0 -35 35 -52.5t96 -18.5h54z" />
    <glyph glyph-name="zeta" unicode="&#x3b6;" horiz-adv-x="415" 
d="M478 752l3 -63q-39 -22 -80 -52.5t-80 -67t-73 -78.5t-60 -85.5t-41 -90t-15 -89.5q0 -60 27 -96t84 -56q37 -18 129 -30q7 -1 7 -9q0 -29 -31.5 -92t-62.5 -96l-57 20q13 18 32 56.5t24 60.5q-62 10 -104 27q-140 54 -140 201q0 82 48 175t119 168.5t152 126.5v3h-75
q-81 0 -116 12l18 61q30 -6 123 -6h169z" />
    <glyph glyph-name="eta" unicode="&#x3b7;" horiz-adv-x="565" 
d="M119 0h-89l69 363q19 107 13 150h79q7 -34 -2 -101h2q34 54 83.5 83t105.5 29q19 0 37 -4t35 -15t30 -26.5t21 -40.5t8 -57q0 -35 -10 -82l-59 -315q-28 -147 -25 -194h-81q-12 29 17 191l59 315q8 44 8 65q0 90 -81 90q-51 0 -104.5 -56t-70.5 -146z" />
    <glyph glyph-name="theta" unicode="&#x3b8;" horiz-adv-x="546" 
d="M235 -12q-57 0 -99.5 28.5t-65.5 85.5t-23 137q0 85 22 186q15 70 40.5 130t61 107.5t84 74.5t103.5 27q86 0 134 -66t48 -174q0 -78 -16 -154q-12 -67 -30 -123t-43.5 -104.5t-57 -82.5t-72 -53t-86.5 -19zM157 421h288q8 56 8 110q0 74 -27 120t-80 46
q-46 0 -85.5 -39.5t-64.5 -99.5t-39 -137zM432 355h-287q-12 -67 -12 -125q0 -55 14 -95t38.5 -60t58.5 -20q133 0 188 300z" />
    <glyph glyph-name="iota" unicode="&#x3b9;" horiz-adv-x="242" 
d="M212 513l-73 -389q-5 -24 -3.5 -38.5t10.5 -20.5t28 -5l-18 -66q-13 -6 -36 -6q-76 0 -76 83q0 20 20 115l61 327h87z" />
    <glyph glyph-name="kappa" unicode="&#x3ba;" horiz-adv-x="488" 
d="M118 0h-87l74 398q15 87 9 115h83q11 -25 -1 -90l-25 -138h5q56 51 137.5 127.5t107.5 100.5h101v-5q-93 -84 -265 -232v-4q17 -4 32 -14.5t26 -22t24 -31t21 -34.5t21 -41l64 -129h-96l-53 108q-31 61 -58 90.5t-65 29.5h-13z" />
    <glyph glyph-name="lambda" unicode="&#x3bb;" horiz-adv-x="462" 
d="M329 0l-50 299q-2 9 -4 23t-4 25.5t-4 26t-3 25.5l-6 1q-26 -62 -45 -100l-153 -300h-93l257 479q10 18 10 29q0 13 -2 23q-15 79 -37.5 120t-67.5 41h-16l16 68q13 4 32 4q44 0 74.5 -26t49.5 -76t36 -136l101 -526h-91z" />
    <glyph glyph-name="uni03BC" unicode="&#x3bc;" horiz-adv-x="556" 
d="M208 513l-58 -304q-13 -69 8 -107.5t78 -38.5q38 0 73 31.5t59 76.5q15 27 22 62l53 280h88l-69 -365q-8 -50 -1.5 -68.5t31.5 -20.5l-20 -66q-12 -5 -28 -5q-72 0 -67 106h-3q-25 -45 -65.5 -74.5t-89.5 -29.5q-35 0 -62.5 16t-41.5 46l-12 -69q-25 -145 -21 -193h-80
q-10 47 17 191l102 532h87z" />
    <glyph glyph-name="nu" unicode="&#x3bd;" horiz-adv-x="466" 
d="M38 513h92q26 -163 44 -283q4 -30 9.5 -76.5t8.5 -63.5h4q157 234 186 367q6 27 8 56h86q0 -29 -4 -45q-33 -179 -261 -468h-84q-26 155 -89 513z" />
    <glyph glyph-name="xi" unicode="&#x3be;" horiz-adv-x="442" 
d="M394 394h-30q-108 -1 -172.5 -51.5t-64.5 -129.5q0 -56 34.5 -90.5t105.5 -53.5q65 -18 133 -26q9 0 9 -10q0 -28 -34 -92.5t-60 -93.5l-59 21q13 17 32.5 56.5t25.5 60.5q-64 7 -116 25q-164 54 -164 189q0 89 59.5 152.5t136.5 81.5v6q-21 7 -38.5 20t-31 30t-21 38.5
t-7.5 44.5q0 77 65.5 134.5t171.5 57.5q85 0 128 -33l-25 -59q-37 26 -102 26q-67 0 -108 -37t-41 -92q0 -51 39.5 -79t103.5 -31h41z" />
    <glyph glyph-name="omicron" unicode="&#x3bf;" horiz-adv-x="552" 
d="M321 524q66 0 112.5 -31t67 -78.5t20.5 -104.5q0 -59 -20.5 -116.5t-56.5 -103t-90.5 -74t-117.5 -28.5q-93 0 -146.5 60.5t-53.5 150.5q0 85 35.5 159t102 120t147.5 46zM311 454q-53 0 -96 -38.5t-65.5 -96t-22.5 -117.5q0 -41 14.5 -74t42.5 -51.5t65 -18.5
q49 0 91.5 38.5t66 96.5t23.5 118q0 25 -6 48.5t-19 45.5t-37 35.5t-57 13.5z" />
    <glyph glyph-name="pi" unicode="&#x3c0;" horiz-adv-x="559" 
d="M564 442h-71l-53 -286q-21 -111 -15 -156h-84q-12 30 10 148l55 294h-161q-18 -77 -26 -106q-27 -107 -61.5 -200.5t-65.5 -135.5h-86q34 52 68 142.5t59 190.5q10 35 27 109q-71 0 -107 -11l-3 53q35 29 145 29h386z" />
    <glyph glyph-name="rho" unicode="&#x3c1;" horiz-adv-x="568" 
d="M84 -210h-83q-5 48 21 188l43 233q18 94 45 150t65 92q71 71 175 71q86 0 137 -58t51 -146q0 -90 -36.5 -166.5t-98 -121t-132.5 -44.5q-47 0 -86.5 20.5t-56.5 57.5h-3l-15 -84q-26 -137 -26 -192zM159 239l-6 -29q-4 -16 -4 -39q0 -26 13 -51t41 -43.5t65 -18.5
q72 0 126 75t54 181q0 37 -12 67.5t-39 50t-64 19.5q-61 0 -107.5 -52.5t-66.5 -159.5z" />
    <glyph glyph-name="uni03C2" unicode="&#x3c2;" horiz-adv-x="434" 
d="M293 -153l-58 21q14 18 32 56t23 60q-52 7 -100 26q-29 9 -54.5 25.5t-48.5 41t-37 60.5t-14 79q0 80 38 150t107.5 114t154.5 44q71 0 112 -26l-26 -64q-39 19 -87 19q-56 0 -103 -28.5t-76 -81t-29 -117.5q0 -114 124 -155q46 -17 125 -28q9 -2 9 -11q0 -32 -32 -93.5
t-60 -91.5z" />
    <glyph glyph-name="sigma" unicode="&#x3c3;" horiz-adv-x="569" 
d="M447 464v-5q38 -23 55.5 -69t17.5 -87q0 -56 -20.5 -112t-56 -101t-89.5 -73.5t-116 -28.5q-94 0 -148 60.5t-54 150.5q0 84 36 158.5t102 120.5t146 46h274l-11 -68q-53 0 -136 8zM247 58q50 0 93 39t66.5 97t23.5 117q0 25 -6 48.5t-19 45.5t-37 35.5t-57 13.5
q-53 0 -96 -38.5t-65.5 -96t-22.5 -117.5q0 -63 33 -103.5t87 -40.5z" />
    <glyph glyph-name="tau" unicode="&#x3c4;" horiz-adv-x="411" 
d="M281 61l-14 -65q-17 -8 -43 -8q-48 0 -73.5 27t-25.5 78q0 28 7 70l52 279h-51q-59 0 -105 -9v52q40 28 141 28h276l-17 -71h-156l-53 -286q-5 -34 -5 -46q0 -50 44 -50q5 0 12 0.5t11 0.5z" />
    <glyph glyph-name="upsilon" unicode="&#x3c5;" horiz-adv-x="530" 
d="M404 513h83q13 -36 13 -94.5t-10 -117t-32 -115.5t-54 -100.5t-80 -70.5t-106 -27q-73 0 -120 43.5t-47 118.5q0 19 8 64l24 124q25 137 21 175h82q13 -23 -2 -96l-36 -196q-7 -47 -7 -57q0 -49 27.5 -76t64.5 -27q53 0 94.5 51.5t63 134t21.5 179.5q0 59 -8 87z" />
    <glyph glyph-name="phi" unicode="&#x3c6;" horiz-adv-x="649" 
d="M248 53l57 314q29 156 145 156q69 0 118.5 -56.5t49.5 -146.5q0 -74 -25.5 -136.5t-67.5 -104.5t-96 -65.5t-112 -25.5l-38 -198h-81l37 198q-82 11 -140 68t-58 154q0 54 15.5 102.5t38.5 82.5t52.5 62t55.5 43.5t50 22.5l31 -47q-24 -12 -48.5 -32.5t-50 -51.5
t-41.5 -76.5t-16 -96.5q0 -63 31 -108.5t93 -57.5zM390 386l-62 -333q86 6 144.5 80.5t58.5 181.5q0 59 -25 101t-63 42q-41 0 -53 -72z" />
    <glyph glyph-name="chi" unicode="&#x3c7;" horiz-adv-x="448" 
d="M50 513h92l50 -167q15 -48 32 -116h5q34 60 70 115q13 22 104 168h91q-79 -119 -238 -356l119 -361l-85 -22l-52 169q-19 60 -44 147h-5q-33 -56 -64 -106q-14 -23 -41 -66t-48.5 -78t-40.5 -66l-74 29q121 185 242 365z" />
    <glyph glyph-name="psi" unicode="&#x3c8;" horiz-adv-x="661" 
d="M534 513h83q13 -33 13 -97q0 -185 -83.5 -303.5t-223.5 -124.5l-36 -198h-83l38 198q-82 6 -133 53.5t-52 137.5q0 36 9 82l24 134q17 87 13 118h80q10 -23 -3 -92l-29 -158q-8 -48 -8 -81q2 -62 32.5 -93.5t78.5 -34.5l110 593h82l-110 -593q37 0 73.5 23.5t67.5 67
t50 115.5t19 160q0 62 -12 93z" />
    <glyph glyph-name="omega" unicode="&#x3c9;" horiz-adv-x="716" 
d="M545 513h80q23 -25 39 -74.5t16 -105.5q0 -95 -31.5 -174.5t-85 -125t-115.5 -45.5q-48 0 -78.5 24.5t-41.5 68.5h-4q-49 -93 -141 -93q-62 0 -105 50t-43 143q0 107 44.5 198t95.5 134h87v-3q-53 -46 -95.5 -132.5t-42.5 -187.5q0 -63 23.5 -95t56.5 -32q24 0 45 17
t35 46t20 66l33 184h84l-33 -166q-8 -43 -8 -60q0 -15 4 -30t12 -28t22 -21t33 -8q52 0 97 82t45 191q0 54 -13.5 101t-34.5 73v3z" />
    <glyph glyph-name="iotadieresis" unicode="&#x3ca;" horiz-adv-x="242" 
d="M85 590q-22 0 -36 14.5t-14 36.5q0 24 16 40t39 16q22 0 36 -14.5t14 -36.5q0 -24 -16 -40t-39 -16zM279 590q-11 0 -20 4t-16 11t-10.5 16t-3.5 20q0 24 16 40t39 16q22 0 35.5 -15t13.5 -36q0 -12 -4 -22t-11 -17.5t-17.5 -12t-21.5 -4.5zM212 513l-73 -389
q-5 -24 -3.5 -38.5t10.5 -20.5t28 -5l-18 -66q-13 -6 -36 -6q-76 0 -76 83q0 20 20 115l61 327h87z" />
    <glyph glyph-name="upsilondieresis" unicode="&#x3cb;" horiz-adv-x="530" 
d="M212 590q-11 0 -20 4t-15.5 11t-10.5 16t-4 20q0 16 7.5 28.5t20 20t27.5 7.5t26.5 -7t17.5 -18.5t6 -25.5q0 -24 -15.5 -40t-39.5 -16zM406 590q-14 0 -25.5 6.5t-18 18.5t-6.5 26q0 24 16 40t39 16q22 0 36 -14.5t14 -36.5q0 -24 -16 -40t-39 -16zM404 513h83
q13 -36 13 -94.5t-10 -117t-32 -115.5t-54 -100.5t-80 -70.5t-106 -27q-73 0 -120 43.5t-47 118.5q0 19 8 64l24 124q25 137 21 175h82q13 -23 -2 -96l-36 -196q-7 -47 -7 -57q0 -49 27.5 -76t64.5 -27q53 0 94.5 51.5t63 134t21.5 179.5q0 59 -8 87z" />
    <glyph glyph-name="omicrontonos" unicode="&#x3cc;" horiz-adv-x="552" 
d="M375 727h105l-141 -152h-68zM321 524q66 0 112.5 -31t67 -78.5t20.5 -104.5q0 -59 -20.5 -116.5t-56.5 -103t-90.5 -74t-117.5 -28.5q-93 0 -146.5 60.5t-53.5 150.5q0 85 35.5 159t102 120t147.5 46zM311 454q-53 0 -96 -38.5t-65.5 -96t-22.5 -117.5q0 -41 14.5 -74
t42.5 -51.5t65 -18.5q49 0 91.5 38.5t66 96.5t23.5 118q0 25 -6 48.5t-19 45.5t-37 35.5t-57 13.5z" />
    <glyph glyph-name="upsilontonos" unicode="&#x3cd;" horiz-adv-x="530" 
d="M347 727h104l-141 -152h-67zM404 513h83q13 -36 13 -94.5t-10 -117t-32 -115.5t-54 -100.5t-80 -70.5t-106 -27q-73 0 -120 43.5t-47 118.5q0 19 8 64l24 124q25 137 21 175h82q13 -23 -2 -96l-36 -196q-7 -47 -7 -57q0 -49 27.5 -76t64.5 -27q53 0 94.5 51.5t63 134
t21.5 179.5q0 59 -8 87z" />
    <glyph glyph-name="omegatonos" unicode="&#x3ce;" horiz-adv-x="716" 
d="M465 727h105l-141 -152h-69zM545 513h80q23 -25 39 -74.5t16 -105.5q0 -95 -31.5 -174.5t-85 -125t-115.5 -45.5q-48 0 -78.5 24.5t-41.5 68.5h-4q-49 -93 -141 -93q-62 0 -105 50t-43 143q0 107 44.5 198t95.5 134h87v-3q-53 -46 -95.5 -132.5t-42.5 -187.5
q0 -63 23.5 -95t56.5 -32q24 0 45 17t35 46t20 66l33 184h84l-33 -166q-8 -43 -8 -60q0 -15 4 -30t12 -28t22 -21t33 -8q52 0 97 82t45 191q0 54 -13.5 101t-34.5 73v3z" />
    <glyph glyph-name="uni0401" unicode="&#x401;" horiz-adv-x="497" 
d="M459 410l-15 -74h-260l-48 -261h292l-15 -75h-380l135 714h365l-15 -75h-275l-44 -229h260zM269 763q-21 0 -36 15t-15 37t16.5 39t38.5 17t36 -15.5t14 -36.5q0 -11 -4 -21.5t-11 -18t-17.5 -12t-21.5 -4.5zM464 763q-21 0 -35.5 15t-14.5 37t16.5 39t38.5 17
q15 0 26.5 -7.5t17.5 -19.5t6 -25q0 -23 -16 -39.5t-39 -16.5z" />
    <glyph glyph-name="uni0402" unicode="&#x402;" horiz-adv-x="672" 
d="M85 714h524l-16 -76h-244l-39 -200h3q59 39 132 39q56 0 98 -28t63.5 -78t21.5 -116q0 -87 -29 -167t-82 -134q-80 -82 -188 -100l-15 73q83 20 134 77q41 46 64 110t23 136q0 67 -31 109t-91 42q-58 0 -116 -39l-68 -362h-88l121 638h-193z" />
    <glyph glyph-name="uni0403" unicode="&#x403;" horiz-adv-x="416" 
d="M389 877h115l-145 -125h-78zM169 714h335l-15 -77h-246l-122 -637h-88z" />
    <glyph glyph-name="uni0404" unicode="&#x404;" horiz-adv-x="580" 
d="M626 691l-27 -71q-55 30 -140 30q-114 0 -197 -70t-105 -182h341l-12 -71h-338q-3 -14 -3 -41q0 -46 13.5 -86t40 -71t69 -48.5t95.5 -17.5q78 0 152 34l13 -69q-77 -40 -191 -40q-137 0 -211 85t-74 221q0 95 34 178t95 141q119 113 287 113q97 0 158 -35z" />
    <glyph glyph-name="uni0405" unicode="&#x405;" horiz-adv-x="493" 
d="M13 38l31 72q66 -45 152 -45q64 0 109.5 36t45.5 98q0 40 -25 71.5t-80 62.5q-142 76 -142 183q0 93 70 151.5t171 58.5q89 0 147 -38l-32 -71q-60 34 -124 32q-32 0 -59 -10t-44.5 -26.5t-27.5 -37t-10 -42.5q0 -29 12.5 -51.5t35.5 -41t62 -40.5q34 -18 58.5 -37
t42.5 -42t27 -51t9 -60q0 -96 -70 -158.5t-188 -62.5q-52 0 -100 14.5t-71 34.5z" />
    <glyph glyph-name="uni0406" unicode="&#x406;" horiz-adv-x="246" 
d="M167 714h88l-135 -714h-88z" />
    <glyph glyph-name="uni0407" unicode="&#x407;" horiz-adv-x="246" 
d="M167 714h88l-135 -714h-88zM128 763q-10 0 -19 4t-16 11t-11 16.5t-4 20.5q0 22 16.5 39t38.5 17q23 0 36.5 -15.5t13.5 -36.5q0 -15 -7 -28t-20 -20.5t-28 -7.5zM324 763q-20 0 -35 15t-15 37t16.5 39t38.5 17t35.5 -15.5t13.5 -36.5q0 -15 -7 -28t-19.5 -20.5
t-27.5 -7.5z" />
    <glyph glyph-name="uni0408" unicode="&#x408;" horiz-adv-x="385" 
d="M-33 6l19 76q36 -15 90 -15q59 0 94 37t52 128l92 482h87l-93 -492q-23 -124 -78.5 -179t-156.5 -55q-68 0 -106 18z" />
    <glyph glyph-name="uni0409" unicode="&#x409;" horiz-adv-x="915" 
d="M231 714h392l-52 -269q30 7 82 7q100 0 161.5 -51t61.5 -149q0 -106 -74 -174q-47 -43 -117 -63.5t-147 -20.5q-81 0 -139 8l121 637h-219l-41 -218q-53 -283 -154 -373q-59 -56 -139 -58l-8 76q23 1 49.5 14t43.5 30q80 76 122 304zM557 374l-57 -304q24 -4 69 -4
q54 0 102 19t80.5 60.5t32.5 98.5q0 70 -41.5 103t-113.5 33q-42 0 -72 -6z" />
    <glyph glyph-name="uni040A" unicode="&#x40a;" horiz-adv-x="922" 
d="M169 714h88l-56 -289h286l55 289h88l-53 -278q32 7 80 7q98 0 162 -51t64 -148q0 -101 -73 -169q-88 -81 -261 -81q-84 0 -141 8l66 352h-288l-65 -354h-88zM564 365l-57 -296q27 -3 71 -3q89 0 151 45.5t62 125.5q0 65 -45 100t-114 35q-28 0 -68 -7z" />
    <glyph glyph-name="uni040B" unicode="&#x40b;" horiz-adv-x="688" 
d="M85 714h519l-14 -75h-245l-40 -210h2q27 19 70 33.5t91 14.5q76 0 116 -44.5t40 -113.5q0 -32 -13 -106l-39 -213h-87l39 210q11 54 11 90q0 45 -25.5 74t-83.5 29q-26 0 -53 -8t-47 -19t-36 -23l-66 -353h-86l120 639h-188z" />
    <glyph glyph-name="uni040C" unicode="&#x40c;" horiz-adv-x="554" 
d="M425 877h114l-144 -125h-78zM168 714h87l-61 -322h22l295 322h108l-322 -334q69 -12 105 -63t54 -141q2 -14 9 -57t13 -69.5t14 -49.5h-92q-5 18 -10 43t-12.5 69t-8.5 52q-17 88 -53 125.5t-115 37.5h-20l-61 -327h-87z" />
    <glyph glyph-name="uni040E" unicode="&#x40e;" horiz-adv-x="524" 
d="M242 878h67q-1 -27 13.5 -45t45.5 -18q60 0 76 63h70q-11 -50 -50.5 -81t-100.5 -31q-62 0 -92 30.5t-29 81.5zM92 714h96l87 -320q4 -14 15 -57t17 -68h2q15 31 36.5 80t30.5 68l139 297h98l-172 -344q-38 -76 -62 -121.5t-63 -106.5t-71 -92q-63 -62 -142 -62
q-43 0 -70 14l17 73q20 -8 51 -8q75 0 136 113q10 19 3 42z" />
    <glyph glyph-name="uni040F" unicode="&#x40f;" horiz-adv-x="645" 
d="M168 714h89l-121 -639h309l123 639h86l-136 -714h-196l-42 -183h-72l28 183h-203z" />
    <glyph glyph-name="uni0410" unicode="&#x410;" horiz-adv-x="601" 
d="M425 226h-247l-113 -226h-94l370 714h104l98 -714h-90zM210 296h207l-27 206q-8 73 -13 131h-2q-3 -6 -24.5 -55t-33.5 -75z" />
    <glyph glyph-name="uni0411" unicode="&#x411;" horiz-adv-x="549" 
d="M168 714h361l-13 -75h-273l-37 -197q35 7 81 7q98 0 159 -51t61 -148q0 -114 -82 -182q-91 -74 -250 -74q-84 0 -141 8zM191 373l-56 -304q30 -5 71 -5q52 0 99 19t79 60t32 95q0 71 -41 106t-112 35q-30 0 -72 -6z" />
    <glyph glyph-name="uni0412" unicode="&#x412;" horiz-adv-x="550" 
d="M34 5l132 699q76 15 153 15q109 0 165 -49q51 -42 51 -112q0 -64 -45 -112.5t-109 -65.5v-2q52 -15 85 -56t33 -103q0 -51 -24 -93.5t-62 -71.5q-79 -58 -231 -58q-97 0 -148 9zM242 642l-44 -231h65q79 0 130.5 38t51.5 102q0 50 -34.5 74t-95.5 24q-49 0 -73 -7z
M184 344l-52 -273q30 -4 72 -4q55 -1 99 14t73.5 51.5t29.5 91.5q0 40 -21.5 68t-54.5 40t-75 12h-71z" />
    <glyph glyph-name="uni0413" unicode="&#x413;" horiz-adv-x="416" 
d="M169 714h335l-15 -77h-246l-122 -637h-88z" />
    <glyph glyph-name="uni0414" unicode="&#x414;" horiz-adv-x="636" 
d="M242 714h379l-121 -641l60 -2l-57 -243h-72l29 172h-423l-41 -172h-71l40 243l50 2q68 92 116 200q47 113 75 255zM309 639l-27 -142q-24 -129 -70 -241q-49 -111 -104 -182h304l107 565h-210z" />
    <glyph glyph-name="uni0415" unicode="&#x415;" horiz-adv-x="497" 
d="M459 410l-15 -74h-260l-48 -261h292l-15 -75h-380l135 714h365l-15 -75h-275l-44 -229h260z" />
    <glyph glyph-name="uni0416" unicode="&#x416;" horiz-adv-x="816" 
d="M112 714h94l162 -323h20l60 323h84l-61 -323h24l275 323h103l-307 -334q35 -5 61 -22.5t43.5 -45t28 -58t18.5 -70.5q4 -19 10 -59t11.5 -69.5t13.5 -55.5h-88q-4 15 -8 32t-7 36t-5.5 35t-6 38t-6.5 37q-15 79 -47 114t-100 35h-24l-62 -327h-84l61 328h-21
q-70 0 -115.5 -38t-87.5 -123q-58 -123 -83 -167h-93q15 24 30.5 54t36 72.5t30.5 62.5q49 95 97.5 138.5t129.5 53.5z" />
    <glyph glyph-name="uni0417" unicode="&#x417;" horiz-adv-x="475" 
d="M133 340l12 70h34q46 0 87.5 14.5t71 48t29.5 80.5q0 31 -14 54t-37.5 35t-53.5 12q-67 0 -138 -42l-20 62q76 52 176 52q75 0 126.5 -41.5t51.5 -118.5q0 -71 -46.5 -120.5t-115.5 -66.5l-2 -2q60 -13 96.5 -56.5t36.5 -108.5q0 -103 -75 -163.5t-187 -60.5
q-103 0 -179 51l31 68q25 -16 66.5 -29.5t82.5 -13.5q73 0 121.5 40.5t48.5 111.5q0 61 -50 94t-113 31z" />
    <glyph glyph-name="uni0418" unicode="&#x418;" horiz-adv-x="666" 
d="M168 714h85l-61 -320q-38 -193 -61 -282l2 -1q59 96 165 233l286 370h92l-136 -714h-83l62 329q28 148 56 262l-3 1q-53 -89 -168 -240l-274 -352h-97z" />
    <glyph glyph-name="uni0419" unicode="&#x419;" horiz-adv-x="666" 
d="M314 877h67q0 -28 14 -45.5t45 -17.5q60 0 76 63h70q-11 -50 -50 -81t-100 -31q-63 0 -93 30.5t-29 81.5zM168 714h85l-61 -320q-38 -193 -61 -282l2 -1q59 96 165 233l286 370h92l-136 -714h-83l62 329q28 148 56 262l-3 1q-53 -89 -168 -240l-274 -352h-97z" />
    <glyph glyph-name="uni041A" unicode="&#x41a;" horiz-adv-x="554" 
d="M168 714h87l-61 -322h22l295 322h108l-322 -334q69 -12 105 -63t54 -141q2 -14 9 -57t13 -69.5t14 -49.5h-92q-5 18 -10 43t-12.5 69t-8.5 52q-17 88 -53 125.5t-115 37.5h-20l-61 -327h-87z" />
    <glyph glyph-name="uni041B" unicode="&#x41b;" horiz-adv-x="623" 
d="M230 714h402l-135 -714h-88l122 639h-230l-41 -219q-27 -144 -64 -234t-88 -136q-52 -57 -140 -60l-9 75q54 6 93 46q80 75 122 302z" />
    <glyph glyph-name="uni041C" unicode="&#x41c;" horiz-adv-x="826" 
d="M716 0h-85l51 386q22 153 39 241h-4q-68 -150 -111 -230l-212 -393h-68l-53 385q-15 120 -22 238h-2q-7 -29 -26.5 -117t-28.5 -124l-98 -386h-82l185 714h112l57 -410q16 -130 17 -178h3q31 75 83 176l222 412h114z" />
    <glyph glyph-name="uni041D" unicode="&#x41d;" horiz-adv-x="664" 
d="M169 714h88l-58 -301h329l57 301h89l-137 -714h-88l64 336h-329l-63 -336h-88z" />
    <glyph glyph-name="uni041E" unicode="&#x41e;" horiz-adv-x="707" 
d="M427 726q69 0 122.5 -24t84.5 -65.5t46.5 -93t15.5 -110.5q0 -96 -34 -189.5t-95 -155.5q-102 -100 -245 -100q-67 0 -120 24t-85 65t-49 92.5t-17 109.5q0 63 16 127t47 122.5t74 100.5q45 45 108.5 71t130.5 26zM415 651q-93 0 -163 -72q-50 -49 -79.5 -132t-29.5 -161
q0 -45 10.5 -84t32.5 -71t60 -50t89 -18q92 0 163 70q48 49 77 133.5t29 162.5q0 33 -4.5 62.5t-17.5 59.5t-33 51.5t-54.5 35t-79.5 13.5z" />
    <glyph glyph-name="uni041F" unicode="&#x41f;" horiz-adv-x="647" 
d="M169 714h487l-136 -714h-88l123 639h-312l-122 -639h-88z" />
    <glyph glyph-name="uni0420" unicode="&#x420;" horiz-adv-x="537" 
d="M33 0l134 703q67 16 155 16q117 0 175 -55q52 -48 52 -129q0 -57 -24 -106t-62 -80q-80 -68 -216 -68q-36 0 -73 5l-54 -286h-87zM240 640l-52 -280q35 -7 70 -7q90 0 146 49.5t56 126.5q0 60 -38.5 89t-103.5 29q-50 0 -78 -7z" />
    <glyph glyph-name="uni0421" unicode="&#x421;" horiz-adv-x="587" 
d="M515 95l11 -72q-75 -34 -185 -34q-135 0 -212 79.5t-77 216.5q0 102 39.5 193t112.5 151q113 97 270 97q54 0 95.5 -11t58.5 -24l-28 -71q-50 29 -141 29q-37 0 -73.5 -9t-70 -27t-61.5 -44q-50 -48 -79.5 -119.5t-29.5 -151.5q0 -50 12 -91t37 -73.5t68 -50.5t100 -18
q93 0 153 30z" />
    <glyph glyph-name="uni0422" unicode="&#x422;" horiz-adv-x="502" 
d="M157 0l121 638h-209l15 76h506l-15 -76h-210l-120 -638h-88z" />
    <glyph glyph-name="uni0423" unicode="&#x423;" horiz-adv-x="524" 
d="M92 714h96l87 -320q4 -14 15 -57t17 -68h2q15 31 36.5 80t30.5 68l139 297h98l-172 -344q-38 -76 -62 -121.5t-63 -106.5t-71 -92q-63 -62 -142 -62q-43 0 -70 14l17 73q20 -8 51 -8q75 0 136 113q10 19 3 42z" />
    <glyph glyph-name="uni0424" unicode="&#x424;" horiz-adv-x="743" 
d="M278 -28l12 62q-99 14 -165.5 86t-66.5 191q0 77 22.5 140.5t58.5 106.5t83 72.5t95.5 43t96.5 12.5l11 56h83l-10 -59q48 -6 88.5 -26.5t72.5 -54.5t50.5 -86.5t18.5 -117.5q0 -86 -29 -156t-78 -115.5t-113 -70t-135 -25.5l-11 -59h-84zM303 101l97 520
q-43 -1 -87 -21.5t-81 -57.5t-60.5 -96t-23.5 -130q0 -89 43 -145.5t112 -69.5zM484 619l-97 -523q117 5 184.5 91.5t67.5 218.5q0 61 -20.5 107.5t-55 72.5t-79.5 33z" />
    <glyph glyph-name="uni0425" unicode="&#x425;" horiz-adv-x="551" 
d="M494 0h-94l-67 177q-30 73 -46 125h-2q-51 -78 -84 -123l-128 -179h-105l279 363l-135 351h94l67 -183q28 -78 36 -108h2q54 81 74 108l136 183h105l-275 -350z" />
    <glyph glyph-name="uni0426" unicode="&#x426;" horiz-adv-x="656" 
d="M169 714h88l-121 -639h309l123 639h87l-122 -641l60 -2l-57 -243h-72l29 172h-460z" />
    <glyph glyph-name="uni0427" unicode="&#x427;" horiz-adv-x="587" 
d="M145 714h87l-38 -200q-11 -67 -11 -82q0 -25 8 -44.5t23.5 -32.5t37.5 -19.5t50 -6.5q41 0 80 14t63 31l65 340h86l-134 -714h-88l57 297h-3q-27 -16 -70 -28t-89 -12q-83 0 -129.5 41.5t-46.5 114.5q0 33 13 101z" />
    <glyph glyph-name="uni0428" unicode="&#x428;" horiz-adv-x="858" 
d="M169 714h87l-123 -639h220l122 639h86l-122 -639h219l122 639h87l-137 -714h-697z" />
    <glyph glyph-name="uni0429" unicode="&#x429;" horiz-adv-x="868" 
d="M169 714h87l-121 -639h218l122 639h86l-121 -639h219l121 639h87l-122 -641l60 -2l-57 -243h-72l28 172h-670z" />
    <glyph glyph-name="uni042A" unicode="&#x42a;" horiz-adv-x="654" 
d="M84 714h283l-52 -269q37 7 80 7q101 0 162.5 -51t61.5 -149q0 -106 -72 -175q-90 -83 -265 -83q-82 0 -139 8l122 636h-196zM301 373l-57 -303q24 -4 71 -4q53 0 100 18.5t79 59.5t32 98q0 69 -40.5 103.5t-112.5 34.5q-30 0 -72 -7z" />
    <glyph glyph-name="uni042B" unicode="&#x42b;" horiz-adv-x="762" 
d="M168 714h88l-52 -269q38 7 82 7q97 0 158 -51t61 -149q-1 -105 -72 -174q-89 -84 -261 -84q-82 0 -139 8zM191 373l-58 -302q20 -5 71 -5q52 0 98.5 19t78 59.5t31.5 94.5q0 48 -19 80t-52 46.5t-79 14.5q-36 0 -71 -7zM680 714h92l-136 -714h-91z" />
    <glyph glyph-name="uni042C" unicode="&#x42c;" horiz-adv-x="548" 
d="M168 714h88l-52 -269q36 7 82 7q100 0 161 -51t61 -149q0 -106 -69 -173q-94 -85 -267 -85q-82 0 -139 8zM191 373l-58 -302q23 -5 71 -5q55 0 102 19t78.5 59.5t31.5 94.5q0 71 -41 106t-113 35q-44 0 -71 -7z" />
    <glyph glyph-name="uni042D" unicode="&#x42d;" horiz-adv-x="572" 
d="M132 326l14 72h322q1 10 1 36q-1 92 -55.5 154t-150.5 62q-81 0 -148 -30l-19 66q31 16 79 28t99 12q135 0 211 -83t76 -226q0 -91 -31 -177t-94 -149q-102 -103 -269 -103q-53 0 -101.5 12.5t-78.5 30.5l27 71q69 -38 151 -38q49 0 91.5 13t75.5 37t59 57t42.5 72
t24.5 83h-326z" />
    <glyph glyph-name="uni042E" unicode="&#x42e;" horiz-adv-x="913" 
d="M169 714h88l-58 -302h108q31 127 106 209q44 49 106 77t127.5 28t116 -24t80.5 -65.5t45 -93t15 -110.5q0 -60 -13.5 -121.5t-40.5 -118t-63 -98.5q-95 -107 -237 -107q-63 0 -113 24t-81 64t-47 90t-16 104q0 28 6 67h-114l-63 -337h-88zM558 63q52 0 100 33t81 85
t52.5 118t19.5 130q0 27 -3 51.5t-10 50.5t-20 47t-32 38t-47.5 26t-63.5 9q-55 0 -103.5 -33.5t-81.5 -87t-52 -118t-19 -126.5q0 -45 10 -84t30.5 -71t56 -50t82.5 -18z" />
    <glyph glyph-name="uni042F" unicode="&#x42f;" horiz-adv-x="549" 
d="M558 703l-132 -703h-88l59 313h-55q-24 0 -45.5 -5.5t-37.5 -13.5t-32 -22.5t-26 -26.5t-23 -34t-20 -35.5t-19 -38.5q-46 -102 -68 -137h-96q12 20 25.5 46t32 65t23.5 50q19 37 32 59t33.5 50.5t45 46t53.5 25.5v3q-51 15 -84 53.5t-33 100.5q0 40 13.5 74.5t34.5 59
t49 42.5q79 44 196 44q85 0 162 -16zM410 379l50 263q-28 7 -75 7q-82 0 -137 -38.5t-55 -112.5q0 -58 42.5 -89t105.5 -31q17 0 41 0.5t28 0.5z" />
    <glyph glyph-name="uni0430" unicode="&#x430;" horiz-adv-x="552" 
d="M451 0h-81q0 35 11 132h-2q-76 -144 -199 -144q-67 0 -107 48t-40 122q0 67 24.5 132t68.5 117.5t112.5 84.5t149.5 32q77 0 137 -20l-51 -267q-26 -136 -23 -237zM397 292l30 155q-30 7 -62 7q-64 0 -120 -40t-88.5 -105t-32.5 -135q0 -49 20.5 -81.5t67.5 -32.5
q57 0 112 66.5t73 165.5z" />
    <glyph glyph-name="uni0431" unicode="&#x431;" horiz-adv-x="543" 
d="M570 763l-14 -78q-22 -8 -73 -17q-49 -7 -75 -12.5t-63.5 -17.5t-66.5 -33t-54 -52q-51 -61 -73 -149h4q33 50 81 79.5t106 29.5q81 0 126.5 -55.5t44.5 -141.5q0 -47 -11.5 -93.5t-35 -89t-56 -74.5t-77.5 -51.5t-97 -19.5q-61 0 -103.5 30.5t-62.5 83.5t-20 126
q0 106 31.5 203t89.5 164q58 74 129.5 103.5t182.5 44.5q50 7 87 20zM248 56q41 0 75.5 24.5t55 62.5t32 81t11.5 84q0 59 -26 98t-79 39q-25 0 -50 -10.5t-46 -29t-38 -43.5q-45 -65 -45 -158q0 -29 6.5 -55t19.5 -47t34.5 -33.5t49.5 -12.5z" />
    <glyph glyph-name="uni0432" unicode="&#x432;" horiz-adv-x="504" 
d="M318 524q31 0 57.5 -7t46 -21.5t30.5 -37.5t11 -52q0 -48 -36 -80.5t-85 -49.5v-2q44 -5 75 -34.5t31 -79.5q0 -44 -21 -78t-55.5 -53.5t-74 -29.5t-80.5 -10q-171 0 -171 149q0 29 5 64.5t15.5 76t26 77.5t38 70t48.5 53q59 45 139 45zM306 460q-104 0 -150 -175
q124 16 169 41q53 30 53 72q0 29 -20 45.5t-52 16.5zM252 239q-55 0 -108 -17q-9 -38 -9 -77q0 -91 93 -91q20 0 39.5 4.5t36 13t29 20.5t19.5 29t7 36q0 42 -29.5 62t-77.5 20z" />
    <glyph glyph-name="uni0433" unicode="&#x433;" horiz-adv-x="388" 
d="M119 428l-15 60q64 37 135 35q68 0 103.5 -34t35.5 -91q0 -31 -11.5 -56t-36.5 -45t-48.5 -34t-61.5 -31q-28 -13 -45.5 -23t-35 -23.5t-26 -29t-8.5 -33.5q0 -29 18.5 -46.5t56.5 -19.5q58 0 123 35l15 -62q-30 -18 -72.5 -29.5t-82.5 -11.5q-70 2 -109 36t-39 96
q0 27 9.5 51t22.5 40t36.5 32.5t42 26t48.5 22.5q3 2 8 4q27 13 40.5 20.5t33 20.5t28 27t8.5 31q0 25 -17.5 41.5t-52.5 16.5q-48 2 -103 -26z" />
    <glyph glyph-name="uni0434" unicode="&#x434;" horiz-adv-x="531" 
d="M149 688l-3 75q17 -4 36 -6t42 -3.5t32 -2.5q65 -7 108 -24t75 -51q37 -38 56 -100t19 -131q0 -39 -4.5 -80t-15.5 -86.5t-26.5 -86.5t-39.5 -78.5t-53 -65t-69 -44t-86 -16.5q-88 0 -136.5 55t-48.5 149q0 55 17.5 111t49 103.5t81 77t107.5 29.5q57 0 94 -28.5
t52 -78.5h3q1 14 1 47q1 45 -13 92t-42 76q-18 18 -39.5 29.5t-47 17.5t-62.5 9q-2 0 -34.5 3.5t-52.5 7.5zM234 56q49 0 89 44t60 100t21 104q0 56 -28.5 97.5t-81.5 41.5q-41 0 -74.5 -24.5t-53 -62.5t-30 -80.5t-10.5 -82.5q1 -38 11 -67.5t35 -49.5t62 -20z" />
    <glyph glyph-name="uni0435" unicode="&#x435;" horiz-adv-x="479" 
d="M387 95l12 -65q-69 -41 -169 -41q-97 0 -146 57.5t-49 148.5q0 58 21 116.5t56.5 106t89 77t113.5 29.5q70 0 110 -37t40 -94q0 -173 -341 -167q-4 -16 -1 -47t12 -51q30 -69 114 -69q70 0 138 36zM380 390q0 31 -21 48.5t-57 17.5q-59 0 -104.5 -48.5t-62.5 -114.5
q55 0 96.5 4t77 14.5t53.5 30t18 48.5z" />
    <glyph glyph-name="uni0436" unicode="&#x436;" horiz-adv-x="673" 
d="M69 513h96l120 -227h19l42 227h83l-44 -227h20l204 227h100l-230 -234q79 -13 104 -139q3 -15 9 -45.5t11.5 -54.5t11.5 -40h-83q-5 13 -9.5 30t-7 30.5t-6 32t-6.5 29.5q-11 59 -36 84t-77 25h-17l-45 -231h-81l45 231h-12q-57 0 -95 -25t-67 -81q-7 -13 -30 -59
t-35 -66h-88q7 12 67 131q35 69 78 106.5t103 41.5z" />
    <glyph glyph-name="uni0437" unicode="&#x437;" horiz-adv-x="423" 
d="M100 237l10 63h35q33 0 65.5 8.5t57 30t24.5 51.5q0 32 -23.5 49.5t-59.5 17.5q-65 0 -122 -36l-20 56q70 46 155 46q43 0 78 -11t60 -40t25 -73q0 -50 -39.5 -83.5t-95.5 -44.5v-1q46 -6 82.5 -38.5t36.5 -81.5q0 -43 -20 -75.5t-53.5 -50.5t-70.5 -26.5t-78 -8.5
q-101 0 -166 44l25 63q63 -39 136 -39q51 0 92 23.5t41 69.5q0 32 -21 52.5t-50 27.5t-63 7h-41z" />
    <glyph glyph-name="uni0438" unicode="&#x438;" horiz-adv-x="557" 
d="M442 513h88l-69 -364q-14 -77 -23 -149h-80l14 96h-2q-35 -50 -83 -79t-98 -29q-27 0 -49.5 7.5t-42.5 23t-31.5 46t-11.5 72.5q0 35 10 85l55 291h88l-54 -286q-10 -43 -10 -76q0 -88 83 -88q50 0 100.5 53t65.5 134z" />
    <glyph glyph-name="uni0439" unicode="&#x439;" horiz-adv-x="557" 
d="M232 724h65q-4 -34 10.5 -56t43.5 -22q54 0 76 78h67q-15 -61 -53.5 -95t-95.5 -34q-65 0 -91.5 36.5t-21.5 92.5zM442 513h88l-69 -364q-14 -77 -23 -149h-80l14 96h-2q-35 -50 -83 -79t-98 -29q-27 0 -49.5 7.5t-42.5 23t-31.5 46t-11.5 72.5q0 35 10 85l55 291h88
l-54 -286q-10 -43 -10 -76q0 -88 83 -88q50 0 100.5 53t65.5 134z" />
    <glyph glyph-name="uni043A" unicode="&#x43a;" horiz-adv-x="483" 
d="M128 513h86l-43 -227h20l221 227h106l-250 -235q41 -10 67 -45.5t46 -99.5q6 -16 12.5 -38t11 -37t10 -31t11.5 -27h-86q-8 16 -22.5 62.5t-19.5 62.5q-9 25 -18.5 42t-19.5 30t-23 20t-28 10.5t-34 3.5h-16l-44 -231h-85z" />
    <glyph glyph-name="uni043B" unicode="&#x43b;" horiz-adv-x="540" 
d="M168 513h347l-98 -513h-86l82 442h-175l-25 -133q-15 -73 -32 -125.5t-43.5 -93.5t-61.5 -62q-44 -34 -105 -35l-7 71q39 3 62 20q70 47 103 224z" />
    <glyph glyph-name="uni043C" unicode="&#x43c;" horiz-adv-x="706" 
d="M155 513h108l41 -260q2 -16 6 -44t7.5 -53.5t5.5 -42.5h2q30 64 92 172l130 228h110l-65 -513h-82l32 245q26 169 28 178h-5q-7 -17 -84 -160l-147 -260h-68l-38 254q-18 117 -21 167h-5q-17 -83 -41 -181l-64 -243h-80z" />
    <glyph glyph-name="uni043D" unicode="&#x43d;" horiz-adv-x="560" 
d="M127 513h88l-39 -207h232l39 207h88l-97 -513h-88l44 235h-232l-44 -235h-88z" />
    <glyph glyph-name="uni043E" unicode="&#x43e;" horiz-adv-x="551" 
d="M321 524q66 0 112.5 -31t67 -78.5t20.5 -104.5q0 -59 -20.5 -116.5t-56.5 -103t-90.5 -74t-116.5 -28.5q-93 0 -146.5 60.5t-53.5 150.5q0 84 35.5 158.5t101.5 120.5t147 46zM311 454q-52 0 -95.5 -38.5t-65.5 -96t-22 -117.5q0 -64 32.5 -104t88.5 -40q50 0 92.5 38.5
t66 96.5t23.5 118q0 25 -6 48.5t-19 45.5t-37.5 35.5t-57.5 13.5z" />
    <glyph glyph-name="uni043F" unicode="&#x43f;" horiz-adv-x="565" 
d="M118 0h-88l69 363q7 37 24 150h78l-12 -101h2q34 54 83.5 83t105.5 29q54 0 92.5 -34t38.5 -109q0 -33 -10 -82l-57 -299h-88l56 296q8 35 8 65q0 90 -81 90q-51 0 -104.5 -56t-70.5 -146z" />
    <glyph glyph-name="uni0440" unicode="&#x440;" horiz-adv-x="558" 
d="M71 -210h-87l103 541q15 87 28 182h81l-15 -97h2q36 51 84.5 79.5t100.5 28.5q78 0 117.5 -53.5t39.5 -131.5q0 -90 -38.5 -170.5t-108.5 -130.5t-152 -50q-71 0 -112 24h-2zM154 229l-26 -143q36 -29 98 -29q54 0 103 41t77 104.5t28 130.5q0 47 -23.5 82.5t-74.5 35.5
q-56 0 -110 -60.5t-72 -161.5z" />
    <glyph glyph-name="uni0441" unicode="&#x441;" horiz-adv-x="448" 
d="M373 90l8 -70q-61 -31 -148 -31q-95 0 -146 56t-51 143t39.5 163.5t112.5 124t163 47.5q64 0 106 -22l-26 -70q-40 19 -87 19q-48 0 -89.5 -22.5t-69 -58.5t-43 -80.5t-15.5 -90.5q0 -63 33 -100t95 -37q61 0 118 29z" />
    <glyph glyph-name="uni0442" unicode="&#x442;" horiz-adv-x="855" 
d="M115 0h-85l69 363q14 77 23 150h77l-14 -97h4q23 35 52 59.5t61.5 36.5t66.5 12q16 0 30.5 -3t26.5 -8t21.5 -13t16.5 -18t12.5 -21.5t8 -24t3.5 -26.5q70 113 189 114q50 0 87 -33.5t37 -100.5q0 -41 -9 -87l-57 -303h-86l55 296q8 33 8 66q0 89 -77 89q-50 0 -97.5 -53
t-62.5 -135l-50 -263h-85l57 301q7 33 7 62q0 88 -77 88q-49 0 -99 -57t-65 -137z" />
    <glyph glyph-name="uni0443" unicode="&#x443;" horiz-adv-x="463" 
d="M51 513h91l51 -277q15 -75 23 -134h2q31 74 55 125l131 286h93l-192 -390q-46 -93 -87 -157.5t-90 -111.5q-26 -27 -57 -47.5t-53 -29t-39 -12.5l-21 75q60 23 94 50q59 46 98 117q5 10 4 24z" />
    <glyph glyph-name="uni0444" unicode="&#x444;" horiz-adv-x="718" 
d="M229 -210l54 266h-1q-26 -31 -55.5 -49.5t-72.5 -18.5q-58 0 -90.5 47.5t-32.5 124.5q0 57 16 119t45.5 117.5t77 91.5t102.5 36q33 0 55 -19t31 -47h1l55 294h82l-61 -298h3q53 70 123 70q66 0 97.5 -51t31.5 -131q0 -56 -15.5 -117t-44 -114.5t-74 -88t-99.5 -34.5
q-34 0 -59.5 19.5t-35.5 47.5h-2l-49 -265h-82zM279 454q-39 0 -71 -31t-51 -77t-29 -93t-10 -85q0 -49 18.5 -78.5t52.5 -29.5q44 0 75 39t42 90l27 133q5 25 5 59q0 19 -8 36t-22 27t-29 10zM537 451q-55 0 -96 -61q-21 -33 -31 -92q-11 -56 -22 -115q-6 -28 -2 -48
q1 -17 9 -34t24.5 -29.5t37.5 -12.5q33 1 62 30.5t46.5 72t27.5 88.5t10 85q0 116 -66 116z" />
    <glyph glyph-name="uni0445" unicode="&#x445;" horiz-adv-x="467" 
d="M67 513h95l50 -113q22 -51 34 -81h3q42 59 56 77l94 117h102l-216 -250l121 -263h-96l-52 115q-14 32 -37 92h-2q-34 -53 -53 -79l-103 -128h-102l224 264z" />
    <glyph glyph-name="uni0446" unicode="&#x446;" horiz-adv-x="569" 
d="M119 513h88l-54 -286q-10 -43 -10 -76q0 -88 83 -88q50 0 100.5 53t65.5 134l50 263h88l-63 -334q-8 -37 -8 -65q0 -63 69 -64l-63 -197h-65l39 147q-32 7 -48 35q-14 23 -12 64h-2q-35 -51 -83.5 -81t-100.5 -30q-27 0 -50.5 7.5t-44 23t-32.5 46t-12 72.5q0 35 10 85z
" />
    <glyph glyph-name="uni0447" unicode="&#x447;" horiz-adv-x="527" 
d="M106 513h87l-22 -114q-12 -56 -12 -82q0 -77 88 -77q31 0 67.5 14.5t58.5 34.5l41 224h87l-97 -513h-87l42 216h-2q-63 -43 -141 -43q-75 0 -111 33.5t-36 91.5q0 29 13 93z" />
    <glyph glyph-name="uni0448" unicode="&#x448;" horiz-adv-x="835" 
d="M120 513h86l-57 -296q-7 -47 -7 -67q0 -89 73 -89q50 0 95.5 52.5t61.5 136.5l50 263h84l-57 -301q-6 -35 -6 -63q0 -88 72 -88q30 0 63 25.5t60 70.5t37 97l47 259h86l-66 -360q-9 -47 -14 -153h-81q2 52 6 96h-3q-69 -108 -174 -108q-53 0 -84 32t-34 83
q-70 -115 -189 -115q-28 0 -53.5 13t-43.5 44.5t-18 77.5q0 41 9 87z" />
    <glyph glyph-name="uni0449" unicode="&#x449;" horiz-adv-x="848" 
d="M120 513h86l-57 -296q-7 -47 -7 -67q0 -89 73 -89q48 0 95 53t62 136l50 263h84l-57 -301q-6 -35 -6 -63q0 -88 72 -88q30 0 63 25.5t60 70.5t37 97l47 259h86l-61 -330q-10 -47 -10 -70q0 -62 70 -63l-63 -197h-65l39 147q-29 7 -46 35.5t-15 61.5h-3
q-73 -109 -180 -109q-53 0 -83 32t-33 83q-34 -56 -82 -85.5t-102 -29.5q-48 0 -84 34t-36 101q0 41 9 87z" />
    <glyph glyph-name="uni044A" unicode="&#x44a;" horiz-adv-x="544" 
d="M57 513h286q-4 -7 -18 -28.5t-18.5 -29.5t-17 -28t-18 -30t-15.5 -28t-16.5 -31.5t-14 -30.5t-13.5 -33h1q28 32 68 51t84 19q31 0 55.5 -9t42.5 -26t27.5 -42t9.5 -55q0 -89 -70 -154t-175 -65q-70 0 -111.5 32t-41.5 104q0 67 37.5 155t87.5 158h-184zM263 57
q59 0 104.5 40t45.5 98q0 37 -21 60.5t-60 23.5q-43 0 -81.5 -30t-52.5 -68q-10 -24 -10 -49q0 -32 19 -53.5t56 -21.5z" />
    <glyph glyph-name="uni044B" unicode="&#x44b;" horiz-adv-x="687" 
d="M128 513h87l-57 -237h1q17 21 41 36t51 23.5t53 8.5q62 0 100 -36t38 -100q0 -59 -31.5 -107.5t-89 -78t-129.5 -29.5q-145 0 -145 111q0 43 12 94zM207 57q58 0 103 39t45 98q0 25 -9 43.5t-27.5 30t-46.5 11.5q-42 0 -81.5 -33.5t-49.5 -76.5q-9 -33 -9 -52t9 -32.5
t25.5 -20.5t40.5 -7zM571 513h91l-97 -513h-93z" />
    <glyph glyph-name="uni044C" unicode="&#x44c;" horiz-adv-x="490" 
d="M129 513h86l-57 -237h1q27 30 67.5 49t80.5 19q62 0 100.5 -36t38.5 -98q0 -92 -70.5 -154.5t-180.5 -62.5q-148 0 -148 115q0 37 13 92zM207 57q60 0 106 39t46 98q0 38 -20.5 61.5t-62.5 23.5q-29 0 -57.5 -16.5t-47.5 -39.5t-27 -47q-11 -27 -11 -55q0 -30 19.5 -47
t54.5 -17z" />
    <glyph glyph-name="uni044D" unicode="&#x44d;" horiz-adv-x="466" 
d="M101 229l10 61h230q0 4 0.5 10t0.5 9q0 40 -16.5 72.5t-50 52t-79.5 19.5q-58 0 -115 -24l-17 63q65 32 143 32q106 0 164 -64t58 -174q0 -129 -79 -213.5t-213 -84.5q-92 0 -150 37l26 65q56 -31 124 -31q78 1 130 45.5t67 124.5h-233z" />
    <glyph glyph-name="uni044E" unicode="&#x44e;" horiz-adv-x="739" 
d="M127 513h88l-39 -209h82q27 97 96 158.5t160 61.5q63 0 108 -31.5t65.5 -79t20.5 -105.5q0 -79 -33 -151.5t-96.5 -120.5t-143.5 -48q-60 0 -104 28.5t-65 74.5t-21 102q0 20 3 44h-85l-45 -237h-88zM445 58q36 0 68.5 23t55 59t36 81t13.5 89q0 25 -6 48.5t-18 46
t-35 36t-54 13.5q-50 0 -91.5 -39.5t-62.5 -97t-20 -115.5q0 -23 4.5 -45t14.5 -40t23.5 -31t32 -20.5t39.5 -7.5z" />
    <glyph glyph-name="uni044F" unicode="&#x44f;" horiz-adv-x="502" 
d="M477 508l-97 -508h-86l42 216h-52q-55 0 -89 -25t-60 -79q-5 -10 -14 -28.5t-14.5 -29.5t-13.5 -26.5t-16 -27.5h-93q13 20 24.5 42t24.5 50t21 44q50 93 131 110v2q-44 10 -75.5 40t-31.5 74q0 38 16 66.5t41 45.5t59 27.5t66.5 14t67.5 3.5q83 0 149 -11zM349 279
l31 171q-38 7 -69 7q-142 0 -142 -96q0 -40 39.5 -61t85.5 -21h55z" />
    <glyph glyph-name="uni0451" unicode="&#x451;" horiz-adv-x="479" 
d="M387 95l12 -65q-69 -41 -169 -41q-97 0 -146 57.5t-49 148.5q0 58 21 116.5t56.5 106t89 77t113.5 29.5q70 0 110 -37t40 -94q0 -173 -341 -167q-4 -16 -1 -47t12 -51q30 -69 114 -69q70 0 138 36zM380 390q0 31 -21 48.5t-57 17.5q-59 0 -104.5 -48.5t-62.5 -114.5
q55 0 96.5 4t77 14.5t53.5 30t18 48.5zM234 604q-22 0 -36 14.5t-14 37.5q0 15 7.5 28t20 20.5t27.5 7.5q23 0 36.5 -15t13.5 -37q0 -24 -15.5 -40t-39.5 -16zM428 604q-22 0 -36 14.5t-14 37.5t16 39.5t39 16.5t36.5 -15t13.5 -37q0 -24 -15.5 -40t-39.5 -16z" />
    <glyph glyph-name="uni0452" unicode="&#x452;" horiz-adv-x="563" 
d="M173 752h87l-17 -89h267l-14 -63h-265l-31 -162h2q72 83 163 83q80 0 119 -59t39 -157q0 -75 -16 -147t-53.5 -140.5t-92.5 -110.5q-62 -59 -147 -72l-16 73q57 12 104 54q60 47 95 138.5t35 191.5q0 155 -99 155q-55 0 -102 -50t-58 -112l-54 -285h-88l113 600h-66
l14 63h65z" />
    <glyph glyph-name="uni0453" unicode="&#x453;" horiz-adv-x="388" 
d="M321 727h106l-141 -152h-69zM119 428l-15 60q64 37 135 35q68 0 103.5 -34t35.5 -91q0 -31 -11.5 -56t-36.5 -45t-48.5 -34t-61.5 -31q-28 -13 -45.5 -23t-35 -23.5t-26 -29t-8.5 -33.5q0 -29 18.5 -46.5t56.5 -19.5q58 0 123 35l15 -62q-30 -18 -72.5 -29.5t-82.5 -11.5
q-70 2 -109 36t-39 96q0 27 9.5 51t22.5 40t36.5 32.5t42 26t48.5 22.5q3 2 8 4q27 13 40.5 20.5t33 20.5t28 27t8.5 31q0 25 -17.5 41.5t-52.5 16.5q-48 2 -103 -26z" />
    <glyph glyph-name="uni0454" unicode="&#x454;" horiz-adv-x="447" 
d="M461 494l-26 -65q-44 25 -101 25q-75 0 -127 -46t-69 -118h241l-10 -61h-241q-2 -17 -2 -26q3 -63 42.5 -103.5t107.5 -40.5q56 0 107 23l11 -64q-56 -30 -145 -30q-97 0 -154.5 62t-57.5 162q0 130 83 221q40 44 95.5 67.5t119.5 23.5q76 0 126 -30z" />
    <glyph glyph-name="uni0455" unicode="&#x455;" horiz-adv-x="395" 
d="M10 24l24 65q52 -32 110 -32q43 0 70.5 24.5t27.5 59.5q0 30 -16 51t-55 43q-93 51 -93 130q0 68 52.5 113.5t133.5 45.5q69 0 107 -25l-25 -67q-39 24 -89 24q-39 0 -65 -22t-26 -56q0 -26 17 -45.5t53 -40.5q97 -55 97 -134t-56 -124t-140 -45q-39 0 -74 10.5t-53 24.5
z" />
    <glyph glyph-name="uni0456" unicode="&#x456;" horiz-adv-x="242" 
d="M118 0h-88l98 513h88zM195 601q-11 0 -20.5 4t-16.5 11.5t-10.5 17.5t-3.5 22t4.5 23t12.5 19t19 12.5t22 4.5q24 0 38 -15.5t14 -39.5q-1 -26 -17.5 -42.5t-41.5 -16.5z" />
    <glyph glyph-name="uni0457" unicode="&#x457;" horiz-adv-x="242" 
d="M118 0h-88l98 513h88zM95 604q-14 0 -26 6.5t-18.5 18.5t-6.5 27q0 23 16 39.5t40 16.5q22 0 35.5 -15t13.5 -37q0 -23 -15 -39.5t-39 -16.5zM289 604q-11 0 -20.5 4t-16 11t-10.5 16.5t-4 20.5q0 23 16 39.5t39 16.5t36.5 -15t13.5 -37q0 -23 -15 -39.5t-39 -16.5z" />
    <glyph glyph-name="uni0458" unicode="&#x458;" horiz-adv-x="240" 
d="M132 513h88l-97 -511q-24 -129 -65 -174q-45 -49 -117 -49q-38 0 -59 6l11 69q19 -4 40 -4q37 0 61.5 29t38.5 104zM195 601q-11 0 -20.5 4t-16.5 11.5t-10.5 17.5t-3.5 22q1 25 17.5 42t40.5 17t38 -15.5t14 -39.5q-1 -26 -17.5 -42.5t-41.5 -16.5z" />
    <glyph glyph-name="uni0459" unicode="&#x459;" horiz-adv-x="778" 
d="M161 513h334l-48 -233h2q29 30 69.5 47t81.5 17q60 0 97 -35.5t37 -97.5q0 -92 -70 -155t-180 -63q-148 0 -148 114q0 30 10 89l50 246h-165l-25 -134q-23 -116 -53.5 -182t-81.5 -98q-45 -35 -101 -35l-6 71q32 1 56 20q68 46 102 222zM498 57q59 0 104 38.5t45 97.5
q0 25 -8.5 44t-26 30.5t-43.5 11.5q-42 0 -80 -31t-56 -70q-11 -27 -11 -55q0 -32 20 -49t56 -17z" />
    <glyph glyph-name="uni045A" unicode="&#x45a;" horiz-adv-x="791" 
d="M127 513h88l-37 -195h205l39 195h85l-47 -232h2q17 19 41 33.5t51 22t52 7.5q62 0 101.5 -36.5t39.5 -99.5q0 -92 -71 -153.5t-181 -61.5q-149 0 -149 110q0 28 11 77l14 69h-207l-46 -249h-88zM510 57q61 0 105.5 38t44.5 98q0 25 -9 44t-28 30.5t-47 11.5
q-29 0 -57 -16t-48 -40.5t-28 -51.5q-10 -31 -10 -52q0 -29 21 -45.5t56 -16.5z" />
    <glyph glyph-name="uni045B" unicode="&#x45b;" horiz-adv-x="565" 
d="M174 752h88l-18 -90h258l-13 -62h-257l-34 -178h2q33 47 79.5 74.5t102.5 27.5q18 0 35.5 -4t34.5 -14.5t30 -26t21 -39.5t8 -53q0 -45 -9 -87l-57 -300h-88l56 296q8 31 8 68q0 26 -7.5 44.5t-26 30.5t-46.5 12q-53 0 -106 -55.5t-69 -139.5l-47 -256h-88l114 600h-71
l13 62h70z" />
    <glyph glyph-name="uni045C" unicode="&#x45c;" horiz-adv-x="483" 
d="M365 727h106l-140 -152h-69zM128 513h86l-43 -227h20l221 227h106l-250 -235q41 -10 67 -45.5t46 -99.5q6 -16 12.5 -38t11 -37t10 -31t11.5 -27h-86q-8 16 -22.5 62.5t-19.5 62.5q-9 25 -18.5 42t-19.5 30t-23 20t-28 10.5t-34 3.5h-16l-44 -231h-85z" />
    <glyph glyph-name="uni045E" unicode="&#x45e;" horiz-adv-x="463" 
d="M177 724h65q-4 -34 11 -56t43 -22q53 0 77 78h66q-14 -61 -53 -95t-96 -34q-65 0 -91.5 36.5t-21.5 92.5zM51 513h91l51 -277q15 -75 23 -134h2q31 74 55 125l131 286h93l-192 -390q-46 -93 -87 -157.5t-90 -111.5q-26 -27 -57 -47.5t-53 -29t-39 -12.5l-21 75
q60 23 94 50q59 46 98 117q5 10 4 24z" />
    <glyph glyph-name="uni045F" unicode="&#x45f;" horiz-adv-x="557" 
d="M225 -203l-72 -10l31 166l83 8zM442 513h88l-69 -364q-14 -77 -23 -149h-80l14 96h-2q-35 -50 -83 -79t-98 -29q-27 0 -49.5 7.5t-42.5 23t-31.5 46t-11.5 72.5q0 35 10 85l55 291h88l-54 -286q-10 -43 -10 -76q0 -88 83 -88q50 0 100.5 53t65.5 134z" />
    <glyph glyph-name="uni0490" unicode="&#x490;" horiz-adv-x="423" 
d="M167 714h268l44 133h70l-52 -210h-255l-120 -637h-89z" />
    <glyph glyph-name="uni0491" unicode="&#x491;" horiz-adv-x="394" 
d="M127 513h225l40 115h68l-49 -186h-211l-83 -442h-87z" />
    <glyph glyph-name="uni04D9" unicode="&#x4d9;" horiz-adv-x="470" 
d="M91 417l-16 65q73 42 171 42q97 0 146 -58t49 -149q0 -58 -21 -116t-56.5 -105.5t-88.5 -77t-113 -29.5q-72 0 -111.5 37t-39.5 95q0 172 341 166q3 15 0.5 46t-10.5 50q-32 70 -114 70q-74 0 -137 -36zM174 57q59 0 104.5 48t63.5 114q-56 1 -97.5 -3t-77 -14.5t-54 -30
t-18.5 -48.5q0 -31 22 -48.5t57 -17.5z" />
    <glyph glyph-name="Wgrave" unicode="&#x1e80;" horiz-adv-x="878" 
d="M387 877h109l79 -124h-72zM232 0h-94l-35 714h89l15 -428q2 -75 0 -186h2q34 93 74 181l197 433h94l15 -411q4 -117 2 -201h2q35 100 70 183l192 429h92l-332 -714h-92l-19 406q-3 95 2 205h-3q-42 -122 -72 -187z" />
    <glyph glyph-name="wgrave" unicode="&#x1e81;" horiz-adv-x="748" 
d="M309 727h99l71 -152h-64zM65 513h86l18 -288q5 -62 3 -138h3q19 55 56 128l152 298h77l32 -293q9 -100 8 -133h2q20 58 49 129l139 297h89l-254 -513h-81l-34 279q-7 66 -7 135h-3q-50 -116 -59 -133l-147 -281h-82z" />
    <glyph glyph-name="Wacute" unicode="&#x1e82;" horiz-adv-x="878" 
d="M585 877h114l-144 -125h-78zM232 0h-94l-35 714h89l15 -428q2 -75 0 -186h2q34 93 74 181l197 433h94l15 -411q4 -117 2 -201h2q35 100 70 183l192 429h92l-332 -714h-92l-19 406q-3 95 2 205h-3q-42 -122 -72 -187z" />
    <glyph glyph-name="wacute" unicode="&#x1e83;" horiz-adv-x="748" 
d="M484 727h106l-141 -152h-69zM65 513h86l18 -288q5 -62 3 -138h3q19 55 56 128l152 298h77l32 -293q9 -100 8 -133h2q20 58 49 129l139 297h89l-254 -513h-81l-34 279q-7 66 -7 135h-3q-50 -116 -59 -133l-147 -281h-82z" />
    <glyph glyph-name="Wdieresis" unicode="&#x1e84;" horiz-adv-x="878" 
d="M446 763q-21 0 -36 15t-15 37t16.5 39t38.5 17t36 -15.5t14 -36.5q0 -11 -4 -21.5t-11.5 -18t-17.5 -12t-21 -4.5zM641 763q-21 0 -35.5 15t-14.5 37q0 14 7.5 27t20 21t27.5 8t26.5 -7.5t17.5 -19.5t6 -25q0 -23 -16 -39.5t-39 -16.5zM232 0h-94l-35 714h89l15 -428
q2 -75 0 -186h2q34 93 74 181l197 433h94l15 -411q4 -117 2 -201h2q35 100 70 183l192 429h92l-332 -714h-92l-19 406q-3 95 2 205h-3q-42 -122 -72 -187z" />
    <glyph glyph-name="wdieresis" unicode="&#x1e85;" horiz-adv-x="748" 
d="M349 604q-23 0 -37 14.5t-14 37.5t16.5 39.5t39.5 16.5q22 0 36 -15t14 -37q0 -23 -16 -39.5t-39 -16.5zM542 604q-22 0 -35.5 14.5t-13.5 37.5q0 24 15.5 40t39.5 16q22 0 35 -15t13 -37q0 -24 -15 -40t-39 -16zM65 513h86l18 -288q5 -62 3 -138h3q19 55 56 128l152 298
h77l32 -293q9 -100 8 -133h2q20 58 49 129l139 297h89l-254 -513h-81l-34 279q-7 66 -7 135h-3q-50 -116 -59 -133l-147 -281h-82z" />
    <glyph glyph-name="uni1EA0" unicode="&#x1ea0;" horiz-adv-x="601" 
d="M425 226h-247l-113 -226h-94l370 714h104l98 -714h-90zM210 296h207l-27 206q-8 73 -13 131h-2q-3 -6 -24.5 -55t-33.5 -75zM234 -192q-22 0 -37.5 16.5t-15.5 37.5q0 8 2.5 16t7.5 14.5t11.5 12t14.5 8t17 2.5q21 0 36 -16t15 -37t-15 -37.5t-36 -16.5z" />
    <glyph glyph-name="uni1EA1" unicode="&#x1ea1;" horiz-adv-x="552" 
d="M451 0h-81q0 35 11 132h-2q-76 -144 -199 -144q-67 0 -107 48t-40 122q0 67 24.5 132t68.5 117.5t112.5 84.5t149.5 32q77 0 137 -20l-51 -267q-26 -136 -23 -237zM397 292l30 155q-30 7 -62 7q-64 0 -120 -40t-88.5 -105t-32.5 -135q0 -49 20.5 -81.5t67.5 -32.5
q57 0 112 66.5t73 165.5zM214 -194q-23 0 -38.5 16t-15.5 39q0 22 16 38t38 16t37 -15.5t15 -38.5t-14.5 -39t-37.5 -16z" />
    <glyph glyph-name="uni1EA2" unicode="&#x1ea2;" horiz-adv-x="601" 
d="M425 226h-247l-113 -226h-94l370 714h104l98 -714h-90zM210 296h207l-27 206q-8 73 -13 131h-2q-3 -6 -24.5 -55t-33.5 -75zM415 750l-45 16q9 17 26 33.5t27.5 29t10.5 28.5q0 9 -3.5 16t-10.5 11t-16 4q-27 0 -57 -36l-31 22q44 68 108 68q35 0 57.5 -20.5t22.5 -50.5
q0 -20 -9.5 -36.5t-21.5 -27t-29.5 -26.5t-28.5 -31z" />
    <glyph glyph-name="uni1EA3" unicode="&#x1ea3;" horiz-adv-x="552" 
d="M451 0h-81q0 35 11 132h-2q-76 -144 -199 -144q-67 0 -107 48t-40 122q0 67 24.5 132t68.5 117.5t112.5 84.5t149.5 32q77 0 137 -20l-51 -267q-26 -136 -23 -237zM397 292l30 155q-30 7 -62 7q-64 0 -120 -40t-88.5 -105t-32.5 -135q0 -49 20.5 -81.5t67.5 -32.5
q57 0 112 66.5t73 165.5zM360 561l-49 15q8 19 26 36.5t31.5 33t13.5 33.5q0 14 -8.5 23.5t-21.5 9.5q-29 0 -58 -39l-33 22q42 70 112 70q35 0 57 -20.5t22 -50.5q0 -19 -6.5 -34.5t-17.5 -27t-22.5 -22t-24.5 -23.5t-21 -26z" />
    <glyph glyph-name="uni1EA4" unicode="&#x1ea4;" horiz-adv-x="601" 
d="M425 226h-247l-113 -226h-94l370 714h104l98 -714h-90zM210 296h207l-27 206q-8 73 -13 131h-2q-3 -6 -24.5 -55t-33.5 -75zM390 873h66l69 -121h-71l-38 73h-2l-74 -73h-79zM595 950h89l-130 -109h-53z" />
    <glyph glyph-name="uni1EA5" unicode="&#x1ea5;" horiz-adv-x="552" 
d="M451 0h-81q0 35 11 132h-2q-76 -144 -199 -144q-67 0 -107 48t-40 122q0 67 24.5 132t68.5 117.5t112.5 84.5t149.5 32q77 0 137 -20l-51 -267q-26 -136 -23 -237zM397 292l30 155q-30 7 -62 7q-64 0 -120 -40t-88.5 -105t-32.5 -135q0 -49 20.5 -81.5t67.5 -32.5
q57 0 112 66.5t73 165.5zM343 734h68l67 -151h-67l-39 99h-3l-67 -99h-72zM558 818h88l-128 -138h-54z" />
    <glyph glyph-name="uni1EA6" unicode="&#x1ea6;" horiz-adv-x="601" 
d="M425 226h-247l-113 -226h-94l370 714h104l98 -714h-90zM210 296h207l-27 206q-8 73 -13 131h-2q-3 -6 -24.5 -55t-33.5 -75zM457 933h88l62 -111h-52zM390 873h66l69 -121h-71l-38 73h-2l-74 -73h-79z" />
    <glyph glyph-name="uni1EA7" unicode="&#x1ea7;" horiz-adv-x="552" 
d="M451 0h-81q0 35 11 132h-2q-76 -144 -199 -144q-67 0 -107 48t-40 122q0 67 24.5 132t68.5 117.5t112.5 84.5t149.5 32q77 0 137 -20l-51 -267q-26 -136 -23 -237zM397 292l30 155q-30 7 -62 7q-64 0 -120 -40t-88.5 -105t-32.5 -135q0 -49 20.5 -81.5t67.5 -32.5
q57 0 112 66.5t73 165.5zM406 820h79l71 -138h-49zM333 734h67l67 -151h-67l-39 99h-3l-67 -99h-72z" />
    <glyph glyph-name="uni1EA8" unicode="&#x1ea8;" horiz-adv-x="601" 
d="M425 226h-247l-113 -226h-94l370 714h104l98 -714h-90zM210 296h207l-27 206q-8 73 -13 131h-2q-3 -6 -24.5 -55t-33.5 -75zM569 799l-44 18q6 11 15.5 20.5t18 16.5t16 14t12 15t4.5 17q0 13 -9.5 22t-23.5 9q-26 0 -56 -32l-27 29q16 22 43 37.5t57 15.5
q36 0 58.5 -19.5t22.5 -49.5q0 -19 -10 -35.5t-22.5 -26.5t-29 -24t-25.5 -27zM393 873h65l71 -121h-72l-39 73h-2l-74 -73h-79z" />
    <glyph glyph-name="uni1EA9" unicode="&#x1ea9;" horiz-adv-x="552" 
d="M451 0h-81q0 35 11 132h-2q-76 -144 -199 -144q-67 0 -107 48t-40 122q0 67 24.5 132t68.5 117.5t112.5 84.5t149.5 32q77 0 137 -20l-51 -267q-26 -136 -23 -237zM397 292l30 155q-30 7 -62 7q-64 0 -120 -40t-88.5 -105t-32.5 -135q0 -49 20.5 -81.5t67.5 -32.5
q57 0 112 66.5t73 165.5zM333 734h67l67 -151h-67l-39 99h-3l-67 -99h-72zM511 672l-44 19q7 13 19.5 25t22 19t17 17.5t7.5 21.5q0 13 -9.5 21.5t-24.5 8.5q-28 0 -55 -32l-29 29q43 54 102 54q35 0 57 -20t22 -50q0 -16 -6 -29t-16 -23t-20.5 -19t-23 -20.5t-19.5 -21.5z
" />
    <glyph glyph-name="uni1EAA" unicode="&#x1eaa;" horiz-adv-x="601" 
d="M425 226h-247l-113 -226h-94l370 714h104l98 -714h-90zM210 296h207l-27 206q-8 73 -13 131h-2q-3 -6 -24.5 -55t-33.5 -75zM349 887h-51q4 44 26.5 71t55.5 27q11 0 22.5 -3.5t17.5 -6.5t23 -12q28 -17 42 -17q13 0 21 9.5t13 32.5h50q-11 -97 -83 -97q-23 0 -61 21
q-31 18 -43.5 18t-21 -12t-11.5 -31zM391 873h66l69 -121h-70l-39 73h-2l-74 -73h-79z" />
    <glyph glyph-name="uni1EAB" unicode="&#x1eab;" horiz-adv-x="552" 
d="M451 0h-81q0 35 11 132h-2q-76 -144 -199 -144q-67 0 -107 48t-40 122q0 67 24.5 132t68.5 117.5t112.5 84.5t149.5 32q77 0 137 -20l-51 -267q-26 -136 -23 -237zM397 292l30 155q-30 7 -62 7q-64 0 -120 -40t-88.5 -105t-32.5 -135q0 -49 20.5 -81.5t67.5 -32.5
q57 0 112 66.5t73 165.5zM296 729h-51q3 29 14 51.5t28.5 34.5t39.5 12q23 0 63 -23q32 -17 42 -17q13 0 21 10t13 34h50q-11 -98 -83 -98q-23 0 -61 21q-31 18 -43.5 18t-21 -12t-11.5 -31zM337 711h63l67 -128h-64l-38 77h-2l-60 -77h-72z" />
    <glyph glyph-name="uni1EAC" unicode="&#x1eac;" horiz-adv-x="601" 
d="M425 226h-247l-113 -226h-94l370 714h104l98 -714h-90zM210 296h207l-27 206q-8 73 -13 131h-2q-3 -6 -24.5 -55t-33.5 -75zM385 877h67l85 -125h-71l-53 76h-2l-76 -76h-79zM234 -192q-22 0 -37.5 16.5t-15.5 37.5t16 37t38 16q21 0 36 -16t15 -37t-15 -37.5t-37 -16.5z
" />
    <glyph glyph-name="uni1EAD" unicode="&#x1ead;" horiz-adv-x="552" 
d="M451 0h-81q0 35 11 132h-2q-76 -144 -199 -144q-67 0 -107 48t-40 122q0 67 24.5 132t68.5 117.5t112.5 84.5t149.5 32q77 0 137 -20l-51 -267q-26 -136 -23 -237zM397 292l30 155q-30 7 -62 7q-64 0 -120 -40t-88.5 -105t-32.5 -135q0 -49 20.5 -81.5t67.5 -32.5
q57 0 112 66.5t73 165.5zM346 727h64l72 -152h-66l-44 98h-2l-74 -98h-72zM222.5 -194q-22.5 0 -38.5 16.5t-16 38.5q0 11 4.5 21t12 17.5t17.5 11.5t22 4q21 0 36 -16t15 -38t-15 -38.5t-37.5 -16.5z" />
    <glyph glyph-name="uni1EAE" unicode="&#x1eae;" horiz-adv-x="601" 
d="M425 226h-247l-113 -226h-94l370 714h104l98 -714h-90zM210 296h207l-27 206q-8 73 -13 131h-2q-3 -6 -24.5 -55t-33.5 -75zM454 948h95l-128 -111h-52zM282 850h53q0 -16 6 -27.5t21 -19.5t38 -8q67 0 82 55h55q-9 -48 -44.5 -79t-95.5 -31q-64 0 -92.5 31t-22.5 79z
" />
    <glyph glyph-name="uni1EAF" unicode="&#x1eaf;" horiz-adv-x="552" 
d="M451 0h-81q0 35 11 132h-2q-76 -144 -199 -144q-67 0 -107 48t-40 122q0 67 24.5 132t68.5 117.5t112.5 84.5t149.5 32q77 0 137 -20l-51 -267q-26 -136 -23 -237zM397 292l30 155q-30 7 -62 7q-64 0 -120 -40t-88.5 -105t-32.5 -135q0 -49 20.5 -81.5t67.5 -32.5
q57 0 112 66.5t73 165.5zM410 819h90l-118 -140h-57zM239 692h52q-1 -31 16 -51t48 -20q36 0 58 20.5t30 50.5h55q-10 -57 -50 -92t-95 -35q-66 0 -93.5 37t-20.5 90z" />
    <glyph glyph-name="uni1EB0" unicode="&#x1eb0;" horiz-adv-x="601" 
d="M425 226h-247l-113 -226h-94l370 714h104l98 -714h-90zM210 296h207l-27 206q-8 73 -13 131h-2q-3 -6 -24.5 -55t-33.5 -75zM286 950h94l65 -111h-51zM282 850h53q0 -16 6 -27.5t21 -19.5t38 -8q67 0 82 55h55q-9 -48 -44.5 -79t-96.5 -31q-64 0 -92 31t-22 79z" />
    <glyph glyph-name="uni1EB1" unicode="&#x1eb1;" horiz-adv-x="552" 
d="M451 0h-81q0 35 11 132h-2q-76 -144 -199 -144q-67 0 -107 48t-40 122q0 67 24.5 132t68.5 117.5t112.5 84.5t149.5 32q77 0 137 -20l-51 -267q-26 -136 -23 -237zM397 292l30 155q-30 7 -62 7q-64 0 -120 -40t-88.5 -105t-32.5 -135q0 -49 20.5 -81.5t67.5 -32.5
q57 0 112 66.5t73 165.5zM244 820h88l69 -140h-54zM237 692h52q-1 -31 16 -51t48 -20q36 0 57.5 20.5t30.5 50.5h55q-10 -57 -50 -92t-95 -35q-66 0 -93.5 37t-20.5 90z" />
    <glyph glyph-name="uni1EB2" unicode="&#x1eb2;" horiz-adv-x="601" 
d="M425 226h-247l-113 -226h-94l370 714h104l98 -714h-90zM210 296h207l-27 206q-8 73 -13 131h-2q-3 -6 -24.5 -55t-33.5 -75zM416 827l-43 18q9 16 26 31t28.5 26.5t11.5 26.5q0 13 -9.5 22t-23.5 9q-27 0 -56 -32l-28 29q17 22 43.5 37.5t57.5 15.5q35 0 57.5 -20
t22.5 -49q0 -19 -10 -35.5t-22.5 -26.5t-29 -24.5t-25.5 -27.5zM284 850h53q0 -24 15.5 -39.5t50.5 -15.5q66 0 81 55h55q-8 -48 -44 -79t-96 -31q-64 0 -92.5 31t-22.5 79z" />
    <glyph glyph-name="uni1EB3" unicode="&#x1eb3;" horiz-adv-x="552" 
d="M451 0h-81q0 35 11 132h-2q-76 -144 -199 -144q-67 0 -107 48t-40 122q0 67 24.5 132t68.5 117.5t112.5 84.5t149.5 32q77 0 137 -20l-51 -267q-26 -136 -23 -237zM397 292l30 155q-30 7 -62 7q-64 0 -120 -40t-88.5 -105t-32.5 -135q0 -49 20.5 -81.5t67.5 -32.5
q57 0 112 66.5t73 165.5zM237 694h52q-1 -31 16 -51.5t48 -20.5q36 0 57.5 21t30.5 51h55q-4 -23 -13 -43t-22.5 -35.5t-30.5 -27t-37 -17t-42 -5.5q-45 0 -73 19.5t-36.5 47.5t-4.5 61zM369 672l-44 19q7 13 19.5 25t22 19t17 17.5t7.5 21.5q0 13 -9.5 21.5t-23.5 8.5
q-27 0 -56 -32l-28 29q17 22 44 38t57 16q23 0 41.5 -9.5t29 -25.5t10.5 -35t-10 -35.5t-23 -26.5t-29.5 -24.5t-24.5 -26.5z" />
    <glyph glyph-name="uni1EB4" unicode="&#x1eb4;" horiz-adv-x="601" 
d="M425 226h-247l-113 -226h-94l370 714h104l98 -714h-90zM210 296h207l-27 206q-8 73 -13 131h-2q-3 -6 -24.5 -55t-33.5 -75zM281 850h55q-1 -24 14 -39.5t49 -15.5q65 0 80 55h57q-9 -48 -44.5 -79t-95.5 -31q-64 0 -92.5 31t-22.5 79zM331 882h-50q5 28 17 50t30 35.5
t39 13.5q28 0 63 -21q28 -20 47 -20q23 0 36 43h48q-16 -103 -87 -103q-28 0 -63 20q-3 2 -11.5 7.5t-12 7.5t-10 4t-12.5 2q-22 -2 -34 -39z" />
    <glyph glyph-name="uni1EB5" unicode="&#x1eb5;" horiz-adv-x="552" 
d="M451 0h-81q0 35 11 132h-2q-76 -144 -199 -144q-67 0 -107 48t-40 122q0 67 24.5 132t68.5 117.5t112.5 84.5t149.5 32q77 0 137 -20l-51 -267q-26 -136 -23 -237zM397 292l30 155q-30 7 -62 7q-64 0 -120 -40t-88.5 -105t-32.5 -135q0 -49 20.5 -81.5t67.5 -32.5
q57 0 112 66.5t73 165.5zM242 693h52q-1 -20 5 -36t20 -25.5t34 -9.5q35 0 55.5 20.5t29.5 50.5h55q-6 -29 -18.5 -52.5t-30.5 -40t-42 -25.5t-51 -9q-65 0 -91 36.5t-18 90.5zM291 730h-49q8 43 30.5 70.5t54.5 27.5t64 -21q29 -19 47 -19q23 0 36 43h48q-16 -103 -88 -103
q-27 0 -62 20q-2 1 -7.5 4.5t-7 4.5t-5.5 3.5t-6.5 3.5t-6 2t-6.5 1.5t-7 0.5q-22 -1 -35 -38z" />
    <glyph glyph-name="uni1EB6" unicode="&#x1eb6;" horiz-adv-x="601" 
d="M425 226h-247l-113 -226h-94l370 714h104l98 -714h-90zM210 296h207l-27 206q-8 73 -13 131h-2q-3 -6 -24.5 -55t-33.5 -75zM291 885h56q0 -25 15 -41.5t49 -16.5q65 0 81 58h57q-9 -49 -44.5 -81t-96.5 -32q-65 0 -94 32t-23 81zM230 -192q-22 0 -37 16.5t-15 38t15 37
t38 15.5q21 0 36 -16t15 -37t-15 -37.5t-37 -16.5z" />
    <glyph glyph-name="uni1EB7" unicode="&#x1eb7;" horiz-adv-x="552" 
d="M451 0h-81q0 35 11 132h-2q-76 -144 -199 -144q-67 0 -107 48t-40 122q0 67 24.5 132t68.5 117.5t112.5 84.5t149.5 32q77 0 137 -20l-51 -267q-26 -136 -23 -237zM397 292l30 155q-30 7 -62 7q-64 0 -120 -40t-88.5 -105t-32.5 -135q0 -49 20.5 -81.5t67.5 -32.5
q57 0 112 66.5t73 165.5zM248 724h53q-2 -32 13.5 -52.5t44.5 -20.5q35 0 56 21t29 52h55q-10 -59 -48 -94t-93 -35q-66 0 -91.5 37t-18.5 92zM219.5 -194q-22.5 0 -38.5 16.5t-16 38.5q0 23 16 38.5t39 15.5q22 0 37 -16t15 -38t-15 -38.5t-37.5 -16.5z" />
    <glyph glyph-name="uni1EB8" unicode="&#x1eb8;" horiz-adv-x="497" 
d="M459 410l-15 -74h-260l-48 -261h292l-15 -75h-380l135 714h365l-15 -75h-275l-44 -229h260zM203 -192q-22 0 -37.5 16.5t-15.5 37.5q0 10 4.5 20t11.5 17t17 11.5t20 4.5q21 0 36 -16t15 -37t-15 -37.5t-36 -16.5z" />
    <glyph glyph-name="uni1EB9" unicode="&#x1eb9;" horiz-adv-x="479" 
d="M387 95l12 -65q-69 -41 -169 -41q-97 0 -146 57.5t-49 148.5q0 58 21 116.5t56.5 106t89 77t113.5 29.5q70 0 110 -37t40 -94q0 -173 -341 -167q-4 -16 -1 -47t12 -51q30 -69 114 -69q70 0 138 36zM380 390q0 31 -21 48.5t-57 17.5q-59 0 -104.5 -48.5t-62.5 -114.5
q55 0 96.5 4t77 14.5t53.5 30t18 48.5zM198 -194q-23 0 -38.5 16t-15.5 39t15.5 38.5t38.5 15.5q22 0 37 -15.5t15 -38.5q0 -15 -6.5 -27.5t-18.5 -20t-27 -7.5z" />
    <glyph glyph-name="uni1EBA" unicode="&#x1eba;" horiz-adv-x="497" 
d="M459 410l-15 -74h-260l-48 -261h292l-15 -75h-380l135 714h365l-15 -75h-275l-44 -229h260zM369 750l-47 16q9 17 26 33.5t28 29t11 28.5q0 9 -4 16t-11 11t-16 4q-27 0 -56 -36l-32 22q44 68 109 68q35 0 57.5 -20.5t22.5 -50.5q0 -16 -6 -29.5t-16 -24t-20.5 -20
t-23.5 -22t-22 -25.5z" />
    <glyph glyph-name="uni1EBB" unicode="&#x1ebb;" horiz-adv-x="479" 
d="M387 95l12 -65q-69 -41 -169 -41q-97 0 -146 57.5t-49 148.5q0 58 21 116.5t56.5 106t89 77t113.5 29.5q70 0 110 -37t40 -94q0 -173 -341 -167q-4 -16 -1 -47t12 -51q30 -69 114 -69q70 0 138 36zM380 390q0 31 -21 48.5t-57 17.5q-59 0 -104.5 -48.5t-62.5 -114.5
q55 0 96.5 4t77 14.5t53.5 30t18 48.5zM324 561l-49 15q7 19 25.5 36.5t32 33t13.5 33.5q0 14 -8.5 23.5t-21.5 9.5q-31 0 -58 -39l-34 22q42 70 112 70q36 0 57.5 -20.5t21.5 -50.5q0 -23 -10.5 -42t-24 -30.5t-30.5 -28t-26 -32.5z" />
    <glyph glyph-name="uni1EBC" unicode="&#x1ebc;" horiz-adv-x="497" 
d="M459 410l-15 -74h-260l-48 -261h292l-15 -75h-380l135 714h365l-15 -75h-275l-44 -229h260zM276 758h-49q8 48 31 77t56 29q31 0 63 -21q29 -19 47 -19q25 0 37 43h49q-18 -103 -88 -103q-27 0 -64 20q-2 1 -7 4.5t-7 4.5t-6 3.5t-6.5 3.5t-6 2t-6.5 1.5t-6 0.5
q-25 -2 -37 -46z" />
    <glyph glyph-name="uni1EBD" unicode="&#x1ebd;" horiz-adv-x="479" 
d="M387 95l12 -65q-69 -41 -169 -41q-97 0 -146 57.5t-49 148.5q0 58 21 116.5t56.5 106t89 77t113.5 29.5q70 0 110 -37t40 -94q0 -173 -341 -167q-4 -16 -1 -47t12 -51q30 -69 114 -69q70 0 138 36zM380 390q0 31 -21 48.5t-57 17.5q-59 0 -104.5 -48.5t-62.5 -114.5
q55 0 96.5 4t77 14.5t53.5 30t18 48.5zM239 602h-50q5 47 26.5 76.5t54.5 29.5q6 0 11 -0.5t10.5 -2t8.5 -2.5t9 -4l8 -4t9 -5.5t9 -5.5q30 -18 43 -18t19.5 9.5t12.5 35.5h49q-7 -51 -26 -76.5t-55 -25.5q-33 0 -63 21q-28 19 -44 19q-9 0 -15.5 -6t-10 -16t-6.5 -25z" />
    <glyph glyph-name="uni1EBE" unicode="&#x1ebe;" horiz-adv-x="497" 
d="M459 410l-15 -74h-260l-48 -261h292l-15 -75h-380l135 714h365l-15 -75h-275l-44 -229h260zM355 873h65l70 -121h-72l-38 73h-2l-73 -73h-80zM560 950h88l-129 -109h-53z" />
    <glyph glyph-name="uni1EBF" unicode="&#x1ebf;" horiz-adv-x="479" 
d="M387 95l12 -65q-69 -41 -169 -41q-97 0 -146 57.5t-49 148.5q0 58 21 116.5t56.5 106t89 77t113.5 29.5q70 0 110 -37t40 -94q0 -173 -341 -167q-4 -16 -1 -47t12 -51q30 -69 114 -69q70 0 138 36zM380 390q0 31 -21 48.5t-57 17.5q-59 0 -104.5 -48.5t-62.5 -114.5
q55 0 96.5 4t77 14.5t53.5 30t18 48.5zM293 734h68l67 -151h-67l-39 99h-3l-67 -99h-71zM510 818h86l-128 -138h-54z" />
    <glyph glyph-name="uni1EC0" unicode="&#x1ec0;" horiz-adv-x="497" 
d="M459 410l-15 -74h-260l-48 -261h292l-15 -75h-380l135 714h365l-15 -75h-275l-44 -229h260zM417 933h88l64 -111h-53zM351 873h65l70 -121h-71l-38 73h-2l-74 -73h-80z" />
    <glyph glyph-name="uni1EC1" unicode="&#x1ec1;" horiz-adv-x="479" 
d="M387 95l12 -65q-69 -41 -169 -41q-97 0 -146 57.5t-49 148.5q0 58 21 116.5t56.5 106t89 77t113.5 29.5q70 0 110 -37t40 -94q0 -173 -341 -167q-4 -16 -1 -47t12 -51q30 -69 114 -69q70 0 138 36zM380 390q0 31 -21 48.5t-57 17.5q-59 0 -104.5 -48.5t-62.5 -114.5
q55 0 96.5 4t77 14.5t53.5 30t18 48.5zM367 820h80l70 -138h-49zM293 734h68l67 -151h-67l-39 99h-3l-67 -99h-71z" />
    <glyph glyph-name="uni1EC2" unicode="&#x1ec2;" horiz-adv-x="497" 
d="M459 410l-15 -74h-260l-48 -261h292l-15 -75h-380l135 714h365l-15 -75h-275l-44 -229h260zM530 799l-44 18q6 11 15.5 20.5t17.5 16.5l16 14t12.5 15t4.5 17q0 13 -9.5 22t-23.5 9q-28 0 -55 -32l-29 29q17 22 44 37.5t58 15.5q35 0 57.5 -19.5t22.5 -49.5
q0 -19 -10 -35.5t-23 -26.5t-29 -24t-25 -27zM354 873h64l71 -121h-72l-38 73h-2l-74 -73h-79z" />
    <glyph glyph-name="uni1EC3" unicode="&#x1ec3;" horiz-adv-x="479" 
d="M387 95l12 -65q-69 -41 -169 -41q-97 0 -146 57.5t-49 148.5q0 58 21 116.5t56.5 106t89 77t113.5 29.5q70 0 110 -37t40 -94q0 -173 -341 -167q-4 -16 -1 -47t12 -51q30 -69 114 -69q70 0 138 36zM380 390q0 31 -21 48.5t-57 17.5q-59 0 -104.5 -48.5t-62.5 -114.5
q55 0 96.5 4t77 14.5t53.5 30t18 48.5zM293 734h68l67 -151h-67l-39 99h-3l-67 -99h-71zM471 672l-43 19q7 13 19.5 25t22 19t17 17.5t7.5 21.5q0 6 -2.5 11.5t-7 9.5t-10.5 6.5t-13 2.5q-27 0 -56 -32l-28 29q11 14 25.5 25.5t34.5 20t41 8.5q35 0 57.5 -20t22.5 -50
q0 -19 -9.5 -35.5t-22.5 -26.5t-29.5 -24.5t-25.5 -26.5z" />
    <glyph glyph-name="uni1EC4" unicode="&#x1ec4;" horiz-adv-x="497" 
d="M459 410l-15 -74h-260l-48 -261h292l-15 -75h-380l135 714h365l-15 -75h-275l-44 -229h260zM307 887h-50q3 22 9.5 40t17.5 31t25 20t31 7q11 0 22.5 -3.5t17.5 -6.5t23 -12q28 -17 42 -17q26 0 33 42h50q-11 -97 -83 -97q-21 0 -62 21q-31 18 -43 18q-23 0 -33 -43z
M351 873h64l71 -121h-72l-38 73h-2l-73 -73h-81z" />
    <glyph glyph-name="uni1EC5" unicode="&#x1ec5;" horiz-adv-x="479" 
d="M387 95l12 -65q-69 -41 -169 -41q-97 0 -146 57.5t-49 148.5q0 58 21 116.5t56.5 106t89 77t113.5 29.5q70 0 110 -37t40 -94q0 -173 -341 -167q-4 -16 -1 -47t12 -51q30 -69 114 -69q70 0 138 36zM380 390q0 31 -21 48.5t-57 17.5q-59 0 -104.5 -48.5t-62.5 -114.5
q55 0 96.5 4t77 14.5t53.5 30t18 48.5zM256 729h-50q5 45 27 71.5t56 26.5q23 0 63 -23q31 -17 42 -17q25 0 33 44h50q-11 -98 -83 -98q-21 0 -61 21q-31 18 -44 18q-23 0 -33 -43zM299 711h62l67 -128h-65l-37 77h-2l-59 -77h-72z" />
    <glyph glyph-name="uni1EC6" unicode="&#x1ec6;" horiz-adv-x="497" 
d="M459 410l-15 -74h-260l-48 -261h292l-15 -75h-380l135 714h365l-15 -75h-275l-44 -229h260zM341 877h69l85 -125h-72l-53 76h-2l-77 -76h-77zM204 -192q-10 0 -20 4.5t-16.5 12t-10.5 17.5t-4 20q0 8 2.5 16t7.5 14.5t11 12t14.5 8t17.5 2.5q21 0 35.5 -16t14.5 -37
q0 -13 -6.5 -25.5t-18.5 -20.5t-27 -8z" />
    <glyph glyph-name="uni1EC7" unicode="&#x1ec7;" horiz-adv-x="479" 
d="M387 95l12 -65q-69 -41 -169 -41q-97 0 -146 57.5t-49 148.5q0 58 21 116.5t56.5 106t89 77t113.5 29.5q70 0 110 -37t40 -94q0 -173 -341 -167q-4 -16 -1 -47t12 -51q30 -69 114 -69q70 0 138 36zM380 390q0 31 -21 48.5t-57 17.5q-59 0 -104.5 -48.5t-62.5 -114.5
q55 0 96.5 4t77 14.5t53.5 30t18 48.5zM302 727h63l73 -152h-66l-45 98h-2l-74 -98h-72zM198 -194q-23 0 -38.5 16t-15.5 39t15.5 38.5t38.5 15.5q22 0 37 -15.5t15 -38.5q0 -15 -6.5 -27.5t-18.5 -20t-27 -7.5z" />
    <glyph glyph-name="uni1EC8" unicode="&#x1ec8;" horiz-adv-x="246" 
d="M167 714h88l-135 -714h-88zM236 750l-45 16q9 17 25.5 33.5t27.5 29t11 28.5q0 9 -3.5 16t-10.5 11t-16 4q-29 0 -57 -36l-31 22q44 68 108 68q17 0 32 -5.5t25.5 -15.5t16.5 -23t6 -27q0 -20 -9.5 -36.5t-21.5 -27t-29.5 -26.5t-28.5 -31z" />
    <glyph glyph-name="uni1EC9" unicode="&#x1ec9;" horiz-adv-x="242" 
d="M118 0h-88l98 513h88zM203 561l-49 15q5 15 18 29.5t24.5 23.5t20.5 22.5t9 27.5t-9 23.5t-22 9.5q-30 0 -58 -39l-34 22q42 70 112 70q35 0 57 -20.5t22 -50.5q0 -23 -10.5 -42t-24 -30.5t-30.5 -28t-26 -32.5z" />
    <glyph glyph-name="uni1ECA" unicode="&#x1eca;" horiz-adv-x="246" 
d="M167 714h88l-135 -714h-88zM51 -192q-22 0 -37.5 16.5t-15.5 37.5t15.5 37t38.5 16q21 0 36 -16t15 -37t-15 -37.5t-37 -16.5z" />
    <glyph glyph-name="uni1ECB" unicode="&#x1ecb;" horiz-adv-x="242" 
d="M118 0h-88l98 513h88zM195 601q-11 0 -20.5 4t-16.5 11.5t-10.5 17.5t-3.5 22t4.5 23t12.5 19t19 12.5t22 4.5q24 0 38 -15.5t14 -39.5q-1 -26 -17.5 -42.5t-41.5 -16.5zM63 -194q-23 0 -39 16.5t-16 38.5q0 23 16.5 38.5t39.5 15.5q14 0 26 -7t18.5 -19.5t6.5 -27.5
t-6.5 -27.5t-18.5 -20t-27 -7.5z" />
    <glyph glyph-name="uni1ECC" unicode="&#x1ecc;" horiz-adv-x="707" 
d="M427 726q69 0 122.5 -24t84.5 -65.5t46.5 -93t15.5 -110.5q0 -96 -34 -189.5t-95 -155.5q-102 -100 -245 -100q-67 0 -120 24t-85 65t-49 92.5t-17 109.5q0 63 16 127t47 122.5t74 100.5q45 45 108.5 71t130.5 26zM415 651q-93 0 -163 -72q-50 -49 -79.5 -132t-29.5 -161
q0 -45 10.5 -84t32.5 -71t60 -50t89 -18q92 0 163 70q48 49 77 133.5t29 162.5q0 33 -4.5 62.5t-17.5 59.5t-33 51.5t-54.5 35t-79.5 13.5zM269 -192q-15 0 -27 8t-19 20.5t-7 25.5q0 10 4 20t11 17t17 11.5t21 4.5q22 0 36.5 -15.5t14.5 -37t-14.5 -38t-36.5 -16.5z" />
    <glyph glyph-name="uni1ECD" unicode="&#x1ecd;" horiz-adv-x="552" 
d="M321 524q66 0 112.5 -31t67 -78.5t20.5 -104.5q0 -59 -20.5 -116.5t-56.5 -103t-90.5 -74t-116.5 -28.5q-93 0 -146.5 60.5t-53.5 150.5q0 84 35.5 158.5t101.5 120.5t147 46zM311 454q-52 0 -95.5 -38.5t-65.5 -96t-22 -117.5q0 -64 32.5 -104t88.5 -40q50 0 92.5 38.5
t66 96.5t23.5 118q0 25 -6 48.5t-19 45.5t-37.5 35.5t-57.5 13.5zM218 -194q-23 0 -38.5 16t-15.5 39q0 22 16 38t38 16t37 -15.5t15 -38.5q0 -15 -6.5 -27.5t-18.5 -20t-27 -7.5z" />
    <glyph glyph-name="uni1ECE" unicode="&#x1ece;" horiz-adv-x="707" 
d="M427 726q69 0 122.5 -24t84.5 -65.5t46.5 -93t15.5 -110.5q0 -96 -34 -189.5t-95 -155.5q-102 -100 -245 -100q-67 0 -120 24t-85 65t-49 92.5t-17 109.5q0 63 16 127t47 122.5t74 100.5q45 45 108.5 71t130.5 26zM415 651q-93 0 -163 -72q-50 -49 -79.5 -132t-29.5 -161
q0 -45 10.5 -84t32.5 -71t60 -50t89 -18q92 0 163 70q48 49 77 133.5t29 162.5q0 33 -4.5 62.5t-17.5 59.5t-33 51.5t-54.5 35t-79.5 13.5zM463 750l-47 16q8 14 20.5 27t22 21t16.5 19.5t7 23.5q0 9 -4 16t-11 11t-16 4q-28 0 -56 -36l-33 22q46 68 109 68q36 0 58.5 -20.5
t22.5 -50.5q0 -20 -9.5 -36.5t-21.5 -27t-29.5 -26.5t-28.5 -31z" />
    <glyph glyph-name="uni1ECF" unicode="&#x1ecf;" horiz-adv-x="552" 
d="M321 524q66 0 112.5 -31t67 -78.5t20.5 -104.5q0 -59 -20.5 -116.5t-56.5 -103t-90.5 -74t-116.5 -28.5q-93 0 -146.5 60.5t-53.5 150.5q0 84 35.5 158.5t101.5 120.5t147 46zM311 454q-52 0 -95.5 -38.5t-65.5 -96t-22 -117.5q0 -64 32.5 -104t88.5 -40q50 0 92.5 38.5
t66 96.5t23.5 118q0 25 -6 48.5t-19 45.5t-37.5 35.5t-57.5 13.5zM359 561l-50 15q8 19 26.5 36.5t32 33t13.5 33.5q0 14 -8.5 23.5t-21.5 9.5q-30 0 -59 -39l-34 22q43 70 113 70q35 0 57 -20.5t22 -50.5q0 -23 -10.5 -42t-24 -30.5t-30.5 -28t-26 -32.5z" />
    <glyph glyph-name="uni1ED0" unicode="&#x1ed0;" horiz-adv-x="707" 
d="M427 726q69 0 122.5 -24t84.5 -65.5t46.5 -93t15.5 -110.5q0 -96 -34 -189.5t-95 -155.5q-102 -100 -245 -100q-67 0 -120 24t-85 65t-49 92.5t-17 109.5q0 63 16 127t47 122.5t74 100.5q45 45 108.5 71t130.5 26zM415 651q-93 0 -163 -72q-50 -49 -79.5 -132t-29.5 -161
q0 -45 10.5 -84t32.5 -71t60 -50t89 -18q92 0 163 70q48 49 77 133.5t29 162.5q0 33 -4.5 62.5t-17.5 59.5t-33 51.5t-54.5 35t-79.5 13.5zM439 873h64l70 -121h-71l-38 73h-2l-74 -73h-80zM643 950h89l-130 -109h-52z" />
    <glyph glyph-name="uni1ED1" unicode="&#x1ed1;" horiz-adv-x="552" 
d="M321 524q66 0 112.5 -31t67 -78.5t20.5 -104.5q0 -59 -20.5 -116.5t-56.5 -103t-90.5 -74t-116.5 -28.5q-93 0 -146.5 60.5t-53.5 150.5q0 84 35.5 158.5t101.5 120.5t147 46zM311 454q-52 0 -95.5 -38.5t-65.5 -96t-22 -117.5q0 -64 32.5 -104t88.5 -40q50 0 92.5 38.5
t66 96.5t23.5 118q0 25 -6 48.5t-19 45.5t-37.5 35.5t-57.5 13.5zM319 734h68l66 -151h-66l-40 99h-2l-67 -99h-71zM535 818h87l-128 -138h-54z" />
    <glyph glyph-name="uni1ED2" unicode="&#x1ed2;" horiz-adv-x="707" 
d="M427 726q69 0 122.5 -24t84.5 -65.5t46.5 -93t15.5 -110.5q0 -96 -34 -189.5t-95 -155.5q-102 -100 -245 -100q-67 0 -120 24t-85 65t-49 92.5t-17 109.5q0 63 16 127t47 122.5t74 100.5q45 45 108.5 71t130.5 26zM415 651q-93 0 -163 -72q-50 -49 -79.5 -132t-29.5 -161
q0 -45 10.5 -84t32.5 -71t60 -50t89 -18q92 0 163 70q48 49 77 133.5t29 162.5q0 33 -4.5 62.5t-17.5 59.5t-33 51.5t-54.5 35t-79.5 13.5zM503 933h88l64 -111h-53zM438 873h64l71 -121h-72l-38 73h-2l-74 -73h-80z" />
    <glyph glyph-name="uni1ED3" unicode="&#x1ed3;" horiz-adv-x="552" 
d="M321 524q66 0 112.5 -31t67 -78.5t20.5 -104.5q0 -59 -20.5 -116.5t-56.5 -103t-90.5 -74t-116.5 -28.5q-93 0 -146.5 60.5t-53.5 150.5q0 84 35.5 158.5t101.5 120.5t147 46zM311 454q-52 0 -95.5 -38.5t-65.5 -96t-22 -117.5q0 -64 32.5 -104t88.5 -40q50 0 92.5 38.5
t66 96.5t23.5 118q0 25 -6 48.5t-19 45.5t-37.5 35.5t-57.5 13.5zM392 820h80l70 -138h-48zM319 734h68l66 -151h-66l-40 99h-2l-67 -99h-71z" />
    <glyph glyph-name="uni1ED4" unicode="&#x1ed4;" horiz-adv-x="707" 
d="M427 726q69 0 122.5 -24t84.5 -65.5t46.5 -93t15.5 -110.5q0 -96 -34 -189.5t-95 -155.5q-102 -100 -245 -100q-67 0 -120 24t-85 65t-49 92.5t-17 109.5q0 63 16 127t47 122.5t74 100.5q45 45 108.5 71t130.5 26zM415 651q-93 0 -163 -72q-50 -49 -79.5 -132t-29.5 -161
q0 -45 10.5 -84t32.5 -71t60 -50t89 -18q92 0 163 70q48 49 77 133.5t29 162.5q0 33 -4.5 62.5t-17.5 59.5t-33 51.5t-54.5 35t-79.5 13.5zM610 799l-43 18q6 11 15 20.5t17.5 16.5t16 14t12 15t4.5 17q0 13 -9 22t-23 9q-27 0 -57 -32l-27 29q17 22 43.5 37.5t57.5 15.5
q35 0 57.5 -19.5t22.5 -49.5q0 -19 -10 -35.5t-22.5 -26.5t-29 -24t-25.5 -27zM434 873h65l71 -121h-72l-38 73h-2l-75 -73h-79z" />
    <glyph glyph-name="uni1ED5" unicode="&#x1ed5;" horiz-adv-x="552" 
d="M321 524q66 0 112.5 -31t67 -78.5t20.5 -104.5q0 -59 -20.5 -116.5t-56.5 -103t-90.5 -74t-116.5 -28.5q-93 0 -146.5 60.5t-53.5 150.5q0 84 35.5 158.5t101.5 120.5t147 46zM311 454q-52 0 -95.5 -38.5t-65.5 -96t-22 -117.5q0 -64 32.5 -104t88.5 -40q50 0 92.5 38.5
t66 96.5t23.5 118q0 25 -6 48.5t-19 45.5t-37.5 35.5t-57.5 13.5zM314 734h67l67 -151h-67l-39 99h-3l-67 -99h-72zM492 672l-44 19q9 16 26 30.5t28.5 26.5t11.5 26q0 13 -9.5 21.5t-24.5 8.5q-28 0 -55 -32l-29 29q43 54 102 54q34 0 56.5 -20t22.5 -50q0 -16 -6 -29
t-16 -23t-20.5 -19t-23 -20.5t-19.5 -21.5z" />
    <glyph glyph-name="uni1ED6" unicode="&#x1ed6;" horiz-adv-x="707" 
d="M427 726q69 0 122.5 -24t84.5 -65.5t46.5 -93t15.5 -110.5q0 -96 -34 -189.5t-95 -155.5q-102 -100 -245 -100q-67 0 -120 24t-85 65t-49 92.5t-17 109.5q0 63 16 127t47 122.5t74 100.5q45 45 108.5 71t130.5 26zM415 651q-93 0 -163 -72q-50 -49 -79.5 -132t-29.5 -161
q0 -45 10.5 -84t32.5 -71t60 -50t89 -18q92 0 163 70q48 49 77 133.5t29 162.5q0 33 -4.5 62.5t-17.5 59.5t-33 51.5t-54.5 35t-79.5 13.5zM392 887h-51q6 45 28 71.5t56 26.5q22 0 62 -22q29 -17 43 -17q12 0 20 9.5t13 32.5h49q-10 -97 -82 -97q-23 0 -62 21
q-31 18 -43 18q-24 0 -33 -43zM435 873h65l71 -121h-72l-38 73h-2l-74 -73h-80z" />
    <glyph glyph-name="uni1ED7" unicode="&#x1ed7;" horiz-adv-x="552" 
d="M321 524q66 0 112.5 -31t67 -78.5t20.5 -104.5q0 -59 -20.5 -116.5t-56.5 -103t-90.5 -74t-116.5 -28.5q-93 0 -146.5 60.5t-53.5 150.5q0 84 35.5 158.5t101.5 120.5t147 46zM311 454q-52 0 -95.5 -38.5t-65.5 -96t-22 -117.5q0 -64 32.5 -104t88.5 -40q50 0 92.5 38.5
t66 96.5t23.5 118q0 25 -6 48.5t-19 45.5t-37.5 35.5t-57.5 13.5zM282 729h-51q6 45 28 71.5t56 26.5q23 0 62 -23q32 -17 43 -17q24 0 32 44h50q-11 -98 -82 -98q-21 0 -62 21q-31 18 -43 18q-24 0 -33 -43zM324 711h63l66 -128h-64l-37 77h-2l-60 -77h-72z" />
    <glyph glyph-name="uni1ED8" unicode="&#x1ed8;" horiz-adv-x="707" 
d="M427 726q69 0 122.5 -24t84.5 -65.5t46.5 -93t15.5 -110.5q0 -96 -34 -189.5t-95 -155.5q-102 -100 -245 -100q-67 0 -120 24t-85 65t-49 92.5t-17 109.5q0 63 16 127t47 122.5t74 100.5q45 45 108.5 71t130.5 26zM415 651q-93 0 -163 -72q-50 -49 -79.5 -132t-29.5 -161
q0 -45 10.5 -84t32.5 -71t60 -50t89 -18q92 0 163 70q48 49 77 133.5t29 162.5q0 33 -4.5 62.5t-17.5 59.5t-33 51.5t-54.5 35t-79.5 13.5zM427 877h68l84 -125h-71l-52 76h-3l-76 -76h-77zM271 -192q-22 0 -37.5 16.5t-15.5 37.5q0 10 4.5 20t11.5 17t16.5 11.5t20.5 4.5
q21 0 36 -16t15 -37t-15 -37.5t-36 -16.5z" />
    <glyph glyph-name="uni1ED9" unicode="&#x1ed9;" horiz-adv-x="552" 
d="M321 524q66 0 112.5 -31t67 -78.5t20.5 -104.5q0 -59 -20.5 -116.5t-56.5 -103t-90.5 -74t-116.5 -28.5q-93 0 -146.5 60.5t-53.5 150.5q0 84 35.5 158.5t101.5 120.5t147 46zM311 454q-52 0 -95.5 -38.5t-65.5 -96t-22 -117.5q0 -64 32.5 -104t88.5 -40q50 0 92.5 38.5
t66 96.5t23.5 118q0 25 -6 48.5t-19 45.5t-37.5 35.5t-57.5 13.5zM333 727h63l73 -152h-65l-46 98h-2l-74 -98h-71zM213 -194q-23 0 -38.5 16.5t-15.5 38.5q0 11 4.5 21t11.5 17.5t17.5 11.5t21.5 4q21 0 36.5 -16t15.5 -38t-15 -38.5t-38 -16.5z" />
    <glyph glyph-name="uni1EDA" unicode="&#x1eda;" horiz-adv-x="707" 
d="M686 784l74 13q11 -25 11 -68q0 -56 -34 -87t-90 -25q49 -71 49 -184q0 -96 -34 -189.5t-95 -155.5q-102 -100 -245 -100q-67 0 -120 24t-85 65t-49 92.5t-17 109.5q0 63 16 127t47 122.5t74 100.5q45 45 108.5 71t130.5 26q64 0 123 -25q8 -3 23 -10t24 -11t21.5 -7
t23.5 -3q30 0 43 15t13 45q0 29 -12 54zM415 651q-93 0 -163 -72q-50 -49 -79.5 -132t-29.5 -161q0 -45 10.5 -84t32.5 -71t60 -50t89 -18q92 0 163 70q48 49 77 133.5t29 162.5q0 33 -4.5 62.5t-17.5 59.5t-33 51.5t-54.5 35t-79.5 13.5zM480 879h115l-145 -125h-78z" />
    <glyph glyph-name="uni1EDB" unicode="&#x1edb;" horiz-adv-x="552" 
d="M311 454q-52 0 -95.5 -38.5t-65.5 -96t-22 -117.5q0 -64 32.5 -104t88.5 -40q50 0 92.5 38.5t66 96.5t23.5 118q0 25 -6 48.5t-19 45.5t-37.5 35.5t-57.5 13.5zM523 587l70 12q9 -24 9 -60q0 -52 -29.5 -81t-80.5 -27q29 -48 29 -121q0 -59 -20.5 -116.5t-56.5 -103
t-90.5 -74t-116.5 -28.5q-93 0 -146.5 60.5t-53.5 150.5q0 84 35.5 158.5t101.5 120.5t147 46q47 0 88 -18q5 -2 16.5 -7.5t18.5 -8.5t18 -5.5t21 -2.5q50 0 50 53q0 25 -10 52zM369 727h106l-141 -152h-69z" />
    <glyph glyph-name="uni1EDC" unicode="&#x1edc;" horiz-adv-x="707" 
d="M686 784l74 13q11 -25 11 -68q0 -56 -34 -87t-90 -25q49 -71 49 -184q0 -96 -34 -189.5t-95 -155.5q-102 -100 -245 -100q-67 0 -120 24t-85 65t-49 92.5t-17 109.5q0 63 16 127t47 122.5t74 100.5q45 45 108.5 71t130.5 26q64 0 123 -25q8 -3 23 -10t24 -11t21.5 -7
t23.5 -3q30 0 43 15t13 45q0 29 -12 54zM415 651q-93 0 -163 -72q-50 -49 -79.5 -132t-29.5 -161q0 -45 10.5 -84t32.5 -71t60 -50t89 -18q92 0 163 70q48 49 77 133.5t29 162.5q0 33 -4.5 62.5t-17.5 59.5t-33 51.5t-54.5 35t-79.5 13.5zM310 879h110l79 -124h-72z" />
    <glyph glyph-name="uni1EDD" unicode="&#x1edd;" horiz-adv-x="552" 
d="M311 454q-52 0 -95.5 -38.5t-65.5 -96t-22 -117.5q0 -64 32.5 -104t88.5 -40q50 0 92.5 38.5t66 96.5t23.5 118q0 25 -6 48.5t-19 45.5t-37.5 35.5t-57.5 13.5zM523 587l70 12q9 -24 9 -60q0 -52 -29.5 -81t-80.5 -27q29 -48 29 -121q0 -59 -20.5 -116.5t-56.5 -103
t-90.5 -74t-116.5 -28.5q-93 0 -146.5 60.5t-53.5 150.5q0 84 35.5 158.5t101.5 120.5t147 46q47 0 88 -18q5 -2 16.5 -7.5t18.5 -8.5t18 -5.5t21 -2.5q50 0 50 53q0 25 -10 52zM218 727h99l71 -152h-64z" />
    <glyph glyph-name="uni1EDE" unicode="&#x1ede;" horiz-adv-x="707" 
d="M686 784l74 13q11 -25 11 -68q0 -56 -34 -87t-90 -25q49 -71 49 -184q0 -96 -34 -189.5t-95 -155.5q-102 -100 -245 -100q-67 0 -120 24t-85 65t-49 92.5t-17 109.5q0 63 16 127t47 122.5t74 100.5q45 45 108.5 71t130.5 26q64 0 123 -25q8 -3 23 -10t24 -11t21.5 -7
t23.5 -3q30 0 43 15t13 45q0 29 -12 54zM415 651q-93 0 -163 -72q-50 -49 -79.5 -132t-29.5 -161q0 -45 10.5 -84t32.5 -71t60 -50t89 -18q92 0 163 70q48 49 77 133.5t29 162.5q0 33 -4.5 62.5t-17.5 59.5t-33 51.5t-54.5 35t-79.5 13.5zM463 753l-47 16q8 14 20 27
t21.5 20.5t16.5 19t7 23.5q0 14 -8.5 22.5t-22.5 8.5q-25 0 -56 -35l-32 22q45 67 109 67q36 0 58 -20t22 -51q0 -20 -9.5 -36.5t-21.5 -26.5t-29.5 -26t-27.5 -31z" />
    <glyph glyph-name="uni1EDF" unicode="&#x1edf;" horiz-adv-x="552" 
d="M311 454q-52 0 -95.5 -38.5t-65.5 -96t-22 -117.5q0 -64 32.5 -104t88.5 -40q50 0 92.5 38.5t66 96.5t23.5 118q0 25 -6 48.5t-19 45.5t-37.5 35.5t-57.5 13.5zM523 587l70 12q9 -24 9 -60q0 -52 -29.5 -81t-80.5 -27q29 -48 29 -121q0 -59 -20.5 -116.5t-56.5 -103
t-90.5 -74t-116.5 -28.5q-93 0 -146.5 60.5t-53.5 150.5q0 84 35.5 158.5t101.5 120.5t147 46q47 0 88 -18q5 -2 16.5 -7.5t18.5 -8.5t18 -5.5t21 -2.5q50 0 50 53q0 25 -10 52zM345 561l-48 15q6 19 24.5 36.5t32.5 33t14 33.5q0 14 -9 23.5t-22 9.5q-31 0 -57 -39l-35 22
q42 70 112 70q24 0 42 -9.5t27.5 -25.5t9.5 -36q0 -19 -6 -34.5t-17 -27t-22.5 -22t-24.5 -23.5t-21 -26z" />
    <glyph glyph-name="uni1EE0" unicode="&#x1ee0;" horiz-adv-x="707" 
d="M686 784l74 13q11 -25 11 -68q0 -56 -34 -87t-90 -25q49 -71 49 -184q0 -96 -34 -189.5t-95 -155.5q-102 -100 -245 -100q-67 0 -120 24t-85 65t-49 92.5t-17 109.5q0 63 16 127t47 122.5t74 100.5q45 45 108.5 71t130.5 26q64 0 123 -25q8 -3 23 -10t24 -11t21.5 -7
t23.5 -3q30 0 43 15t13 45q0 29 -12 54zM415 651q-93 0 -163 -72q-50 -49 -79.5 -132t-29.5 -161q0 -45 10.5 -84t32.5 -71t60 -50t89 -18q92 0 163 70q48 49 77 133.5t29 162.5q0 33 -4.5 62.5t-17.5 59.5t-33 51.5t-54.5 35t-79.5 13.5zM363 761h-49q7 47 30.5 76.5
t55.5 29.5t64 -22q29 -19 47 -19q23 0 36 43h48q-16 -102 -88 -102q-30 0 -63 20q-3 2 -7 4.5t-6.5 4t-6 3.5t-6 3.5t-6 2.5t-7 1h-7.5q-25 0 -35 -45z" />
    <glyph glyph-name="uni1EE1" unicode="&#x1ee1;" horiz-adv-x="552" 
d="M311 454q-52 0 -95.5 -38.5t-65.5 -96t-22 -117.5q0 -64 32.5 -104t88.5 -40q50 0 92.5 38.5t66 96.5t23.5 118q0 25 -6 48.5t-19 45.5t-37.5 35.5t-57.5 13.5zM523 587l70 12q9 -24 9 -60q0 -52 -29.5 -81t-80.5 -27q29 -48 29 -121q0 -59 -20.5 -116.5t-56.5 -103
t-90.5 -74t-116.5 -28.5q-93 0 -146.5 60.5t-53.5 150.5q0 84 35.5 158.5t101.5 120.5t147 46q47 0 88 -18q5 -2 16.5 -7.5t18.5 -8.5t18 -5.5t21 -2.5q50 0 50 53q0 25 -10 52zM253 602h-51q6 47 27.5 76.5t54.5 29.5q6 0 11 -0.5t10 -2t8.5 -2.5t9.5 -4t7.5 -4t9 -5.5
t9.5 -5.5q30 -18 43 -18t19.5 9.5t11.5 35.5h49q-6 -51 -25 -76.5t-55 -25.5q-33 0 -64 21q-27 19 -44 19q-22 0 -31 -47z" />
    <glyph glyph-name="uni1EE2" unicode="&#x1ee2;" horiz-adv-x="707" 
d="M686 784l74 13q11 -25 11 -68q0 -56 -34 -87t-90 -25q49 -71 49 -184q0 -96 -34 -189.5t-95 -155.5q-102 -100 -245 -100q-67 0 -120 24t-85 65t-49 92.5t-17 109.5q0 63 16 127t47 122.5t74 100.5q45 45 108.5 71t130.5 26q64 0 123 -25q8 -3 23 -10t24 -11t21.5 -7
t23.5 -3q30 0 43 15t13 45q0 29 -12 54zM415 651q-93 0 -163 -72q-50 -49 -79.5 -132t-29.5 -161q0 -45 10.5 -84t32.5 -71t60 -50t89 -18q92 0 163 70q48 49 77 133.5t29 162.5q0 33 -4.5 62.5t-17.5 59.5t-33 51.5t-54.5 35t-79.5 13.5zM268 -192q-22 0 -37.5 16.5
t-15.5 37.5t15.5 37t38.5 16q21 0 36 -16t15 -37t-15 -37.5t-37 -16.5z" />
    <glyph glyph-name="uni1EE3" unicode="&#x1ee3;" horiz-adv-x="552" 
d="M311 454q-52 0 -95.5 -38.5t-65.5 -96t-22 -117.5q0 -64 32.5 -104t88.5 -40q50 0 92.5 38.5t66 96.5t23.5 118q0 25 -6 48.5t-19 45.5t-37.5 35.5t-57.5 13.5zM523 587l70 12q9 -24 9 -60q0 -52 -29.5 -81t-80.5 -27q29 -48 29 -121q0 -59 -20.5 -116.5t-56.5 -103
t-90.5 -74t-116.5 -28.5q-93 0 -146.5 60.5t-53.5 150.5q0 84 35.5 158.5t101.5 120.5t147 46q47 0 88 -18q5 -2 16.5 -7.5t18.5 -8.5t18 -5.5t21 -2.5q50 0 50 53q0 25 -10 52zM213 -194q-23 0 -38.5 16.5t-15.5 38.5q0 11 4.5 21t11.5 17.5t17.5 11.5t21.5 4
q21 0 36.5 -16t15.5 -38t-15 -38.5t-38 -16.5z" />
    </font>
</defs>
</svg>
